ML
     
  Уважаемый Гость!
Вы можете поддержать проект и зарегистрироваться у наших партнеров - онлайн-стратегия MyLands. При регистрации в игре Вы получите код, который сможете активировать после регистрации на pirat.ca и получить 1000 дублонов.

Ваш код:
db0e0ad91548759ffeb9bb88bed405e1a4b3c165
 
     

Механика сердца / Jack et la mécanique du coeur (Стефан Берла / Stéphane Berla, Матиас Мальзьё / Mathias Malzieu) [2013 г., Мультфильм, мюзикл, фэнтези, драма, мелодрама, приключения, BDRip-AVC] MVO (RUS) + Dub (ENG) + Original (Fre)

Ответить на тему
 
Автор
Сообщение

Пост 14-Июл-2014 16:57

[Q] 

LPPI

-Механика сердца / Jack et la mécanique du coeur- Производство: Франция, Бельгия, EuropaCorp, Duran, France 3 Cinéma
Жанр: Мультфильм, мюзикл, фэнтези, драма, мелодрама, приключения
Год выпуска: 2013 г.
Продолжительность: 01:32:32
Мировая премьера: 17 ноября 2013
Перевод: Любительский (многоголосый, закадровый) [RUS]
Перевод 2: Профессиональный (полное дублирование) [ENG]
Оригинальный аудиопоток: французский-Режиссер: Стефан Берла / Stéphane Berla, Матиас Мальзьё / Mathias Malzieu
Роли озвучивали: Матиас Мальзьё, Оливия Руис, Гран Кор Маляд, Жан Рошфор, Росси де Пальма, Мари Винсент, Эмили Луазо, Артур Х., Дани-Описание: Джек родился в Эдинбурге, в «самый холодный день на свете», и сердце его мгновенно оледенело. Брошенного матерью мальчика усыновляет акушерка-волшебница, Докторша Мадлен. Она вставляет ему в грудь часы, которые помогают сердцу биться, но влюбляться Джеку нельзя — такого пылкого чувства хрупкая сердечная механика не выдержит. Однако подросший Джек невольно нарушает запрет, увидев на прогулке маленькую уличную певицу…-Сэмпл IMDB КиноПоиск-Качество видео: BDRip-AVC
Контейнер: MKV
Видео кодек: MPEG4 AVC
Аудио кодек: AC3
Видео: 1024x576 (16:9), 1840 Kbps, 24.000 fps
Аудио: 384 Kbps, 6 ch, 48.0 KHz - RUS
Аудио #2: 384 Kbps, 6 ch, 48.0 KHz - ENG
Аудио #3: 640 Kbps, 6 ch, 44.1 KHz - Fre
Cубтитры: отсутствуют
General
Unique ID : 181541722826932074457042502952234757216 (0x8893A9FCDFC9A3EAA18510DB199FAC60)
Complete name : D:\Механика.сердца-Jack.et.la.mecanique.du.coeur.(2013).BDRip-AVC.mkv
Format : Matroska
Format version : Version 4 / Version 2
File size : 2.14 GiB
Duration : 1h 32mn
Overall bit rate mode : Variable
Overall bit rate : 3 314 Kbps
Encoded date : UTC 2014-07-13 08:55:19
Writing application : mkvmerge v6.9.1 ('Blue Panther') 64bit built on Apr 18 2014 18:23:38
Writing library : libebml v1.3.0 + libmatroska v1.4.1
Video
ID : 1
Format : AVC
Format/Info : Advanced Video Codec
Format profile : [email protected]
Format settings, CABAC : No
Format settings, ReFrames : 1 frame
Format settings, GOP : M=1, N=12
Codec ID : V_MPEG4/ISO/AVC
Duration : 1h 32mn
Bit rate mode : Variable
Bit rate : 1 840 Kbps
Maximum bit rate : 2 850 Kbps
Width : 1 024 pixels
Height : 576 pixels
Display aspect ratio : 16:9
Frame rate mode : Constant
Frame rate : 24.000 fps
Color space : YUV
Chroma subsampling : 4:2:0
Bit depth : 8 bits
Scan type : Progressive
Bits/(Pixel*Frame) : 0.130
Stream size : 1.19 GiB (56%)
Language : French
Default : Yes
Forced : No
Audio #1
ID : 2
Format : AC-3
Format/Info : Audio Coding 3
Mode extension : CM (complete main)
Format settings, Endianness : Big
Codec ID : A_AC3
Duration : 1h 32mn
Bit rate mode : Constant
Bit rate : 384 Kbps
Channel(s) : 6 channels
Channel positions : Front: L C R, Side: L R, LFE
Sampling rate : 48.0 KHz
Bit depth : 16 bits
Compression mode : Lossy
Stream size : 254 MiB (12%)
Language : Russian
Default : Yes
Forced : No
Audio #2
ID : 3
Format : AC-3
Format/Info : Audio Coding 3
Mode extension : CM (complete main)
Format settings, Endianness : Big
Codec ID : A_AC3
Duration : 1h 32mn
Bit rate mode : Constant
Bit rate : 384 Kbps
Channel(s) : 6 channels
Channel positions : Front: L C R, Side: L R, LFE
Sampling rate : 48.0 KHz
Bit depth : 16 bits
Compression mode : Lossy
Stream size : 254 MiB (12%)
Language : English
Default : No
Forced : No
Audio #3
ID : 4
Format : AC-3
Format/Info : Audio Coding 3
Mode extension : CM (complete main)
Format settings, Endianness : Big
Codec ID : A_AC3
Duration : 1h 32mn
Bit rate mode : Constant
Bit rate : 640 Kbps
Channel(s) : 6 channels
Channel positions : Front: L C R, Side: L R, LFE
Sampling rate : 44.1 KHz
Bit depth : 16 bits
Compression mode : Lossy
Stream size : 424 MiB (19%)
Default : No
Forced : No
Download / Скачать

Хотите скачать бесплатно? Зарегистрируйтесь на сайте (ссылка на регистрацию). Pirat.ca - самый быстрый торрент трекер в рунете!

Как скачивать  ·   Что такое торрент  ·   Рейтинг и ограничения

Показать сообщения:    
Ответить на тему

Текущее время: Сегодня 08:07

Часовой пояс: GMT + 4



Вы не можете начинать темы
Вы не можете отвечать на сообщения
Вы не можете редактировать свои сообщения
Вы не можете удалять свои сообщения
Вы не можете голосовать в опросах
Вы не можете прикреплять файлы к сообщениям
Вы не можете скачивать файлы

▼ Вниз