ML
     
  Уважаемый Гость!
Вы можете поддержать проект и зарегистрироваться у наших партнеров - онлайн-стратегия MyLands. При регистрации в игре Вы получите код, который сможете активировать после регистрации на pirat.ca и получить 1000 дублонов.

Ваш код:
a6d1ef7ff63e237add5a4c8b21d8aa937c5e9b4b
 
     

Космический пират Харлок / Space Pirate Captain Harlock (Синдзи Арамаки / Shinji Aramaki) [2013 г., Мультфильм, фантастика, боевик, приключения, HDRip] [Расширенная версия / Unrated cut] Dub (Чистый звук)

Ответить на тему
 
Автор
Сообщение

Пост 19-Июл-2014 09:52

[Q] 

LPPI

-Космический пират Харлок / Space Pirate Captain Harlock / Расширенная версия / Unrated cut-«Is he an enemy of the state... or its last hope?»- Производство: Япония, США, Франция, Toei Animation Company
Жанр: Мультфильм, фантастика, боевик, приключения
Год выпуска: 2013 г.
Продолжительность: 01:55:06
Мировая премьера: 3 сентября 2013
Российская премьера: 15 мая 2014, «Централ Партнершип»
Перевод: Профессиональный (полное дублирование) [Чистый звук]-Режиссер: Синдзи Арамаки / Shinji Aramaki
Роли озвучивали: Шун Огури, Аои Ю, Аяно Фукуда, Арата Фурута, Киёси Кобаяси, Харума Миура, Морикава Тосиюки, Тикао Оцука, Маая Сакамото, Миюки Савасиро-Описание: Далекое будущее. Преступная корпорация Гайя стала злейшим врагом Земли, отобрав у людей все: свободу, дом, будущее… Казалось, что надежды на спасение нет… Но, появился Он — космический пират Харлок, капитан призрачного корабля Аркадия. Беглец, готовый сражаться за Землю. Кто Он, герой или преступник?..-Сэмпл IMDB КиноПоиск-Качество видео: HDRip
Контейнер: AVI
Видео кодек: XviD
Аудио кодек: MP3
Видео: 720x304 (2.37:1), 23.976 fps, XviD build 50 ~1559 kbps avg, 0.30 bit/pixel
Аудио: 44.100 kHz, MPEG Layer 3, 2 ch, ~128.00 kbps avg
Cубтитры: отсутствуют
Примечание: Расширенная версия. Недостающие 5 минут перевода озвучены многоголосым переводом.
General
Complete name : D:\Pirat.Harlok.2013.D.HDRip.1400MB.avi
Format : AVI
Format/Info : Audio Video Interleave
File size : 1.36 GiB
Duration : 1h 55mn
Overall bit rate : 1 697 Kbps
Writing application : VirtualDubMod 1.5.10.2 (build 2540/release)
Writing library : VirtualDubMod build 2540/release
Video
ID : 0
Format : MPEG-4 Visual
Format profile : Advanced [email protected]
Format settings, BVOP : 2
Format settings, QPel : No
Format settings, GMC : No warppoints
Format settings, Matrix : Default (H.263)
Codec ID : XVID
Codec ID/Hint : XviD
Duration : 1h 55mn
Bit rate : 1 560 Kbps
Width : 720 pixels
Height : 304 pixels
Display aspect ratio : 2.35:1
Frame rate : 23.976 fps
Color space : YUV
Chroma subsampling : 4:2:0
Bit depth : 8 bits
Scan type : Progressive
Compression mode : Lossy
Bits/(Pixel*Frame) : 0.297
Stream size : 1.25 GiB (92%)
Writing library : XviD 1.2.1 (UTC 2008-12-04)
Audio
ID : 1
Format : MPEG Audio
Format version : Version 1
Format profile : Layer 3
Codec ID : 55
Codec ID/Hint : MP3
Duration : 1h 55mn
Bit rate mode : Constant
Bit rate : 128 Kbps
Channel(s) : 2 channels
Sampling rate : 44.1 KHz
Compression mode : Lossy
Stream size : 105 MiB (8%)
Alignment : Split accross interleaves
Interleave, duration : 42 ms (1.00 video frame)
Interleave, preload duration : 500 ms
Download / Скачать

Хотите скачать бесплатно? Зарегистрируйтесь на сайте (ссылка на регистрацию). Pirat.ca - самый быстрый торрент трекер в рунете!

Как скачивать  ·   Что такое торрент  ·   Рейтинг и ограничения

Dinikins

Штурман

Пост 19-Июл-2014 12:21 (спустя 2 часа 29 минут)

[Q] 

заценим Автору респект!!!
[Профиль]  [ЛС] 

kot2005

Лоцман

Пост 19-Июл-2014 12:44 (спустя 23 минуты)

[Q] 

anime51 Супер!
заценим
[Профиль]  [ЛС] 

HEDGEHOG932

Корсар

Пост 19-Июл-2014 13:15 (спустя 30 минут)

[Q] 

спасибо!!!!!!!!!!!!

_________________

[Профиль]  [ЛС] 

zloiaspirant

Корсар

Пост 19-Июл-2014 14:50 (спустя 1 час 35 минут)

[Q] 

Автору респект!!! Одобрямс!
[Профиль]  [ЛС] 

FinistAira

Морской Волк

Пост 19-Июл-2014 23:35 (спустя 8 часов)

[Q] 

Спасибо. На любителя
[Профиль]  [ЛС] 

Gari4

Флибустьер

Пост 20-Июл-2014 00:26 (спустя 51 минута)

[Q] 

мне понравился. Но единственное, под конец фильм становится нудным, но все равно 5 из 5, если смотреть еще на большой плазме. !COOL!
[Профиль]  [ЛС] 

robb71

Морской Волк

Пост 20-Июл-2014 10:47 (спустя 10 часов)

[Q] 

Спасибо за релиз!!! Супер!
[Профиль]  [ЛС] 

printoff

Пост 20-Июл-2014 14:25 (спустя 3 часа)

[Q] 

Спасибо
Вы лучшие!
[Профиль]  [ЛС] 

Jey1980

Морской Волк

Пост 20-Июл-2014 18:16 (спустя 3 часа)

[Q] 

560323мне понравился. Но единственное, под конец фильм становится нудным, но все равно 5 из 5, если смотреть еще на большой плазме. !COOL!
1,36 GB с двухканальным звуком на большой (50" FullHD) плазме - круто??? Эт вряд ли... (попробуй посмотреть например - Бросок кобры HDRip 1080p, примерно гигов на 10 - 12, со звуком хотя бы 5.1... вот это - эффектно!) Если 5 из 5 - благодаря картинке, то надо ждать качества...
Автору - спасибо за раздачу!
[Профиль]  [ЛС] 

Alex Yz

Гроза морей

Пост 20-Июл-2014 22:49 (спустя 4 часа)

[Q] 

Спасибо!!! Оценим как посмотрим.
[Профиль]  [ЛС] 

Sorrow

Лоцман

Пост 21-Июл-2014 21:24 (спустя 22 часа)

[Q] 

....................муть....................
[Профиль]  [ЛС] 

Танюха10988

Гроза морей

Пост 22-Июл-2014 17:03 (спустя 19 часов)

[Q] 

Спасибо!!! Автору респект!!!
[Профиль]  [ЛС] 

eugenij

Штурман

Пост 23-Авг-2014 22:21 (спустя 1 месяц 1 день)

[Q] 

Кто скажет, есть еще что-то похожее на этот фильм?
[Профиль]  [ЛС] 

Пост 26-Авг-2014 08:46 (спустя 2 дня 10 часов)

Топик был перенесен из форума Новинки (HD|DVD|BD| TV|SAT|PDTV| - Rips) в форум Зарубежные полнометражные мультфильмы
LPPI
 

Taty_tata

Юнга

Пост 10-Окт-2014 16:57 (спустя 1 месяц 17 дней)

[Q] 

спасибки супеер!!!
[Профиль]  [ЛС] 

zanuddda

Штурман

Пост 03-Июл-2015 14:54 (спустя 8 месяцев 23 дня)

[Q] 

Спасибо от меня и попугая на плече)
[Профиль]  [ЛС] 

левка

Корсар

Пост 19-Июл-2015 14:59 (спустя 16 дней)

[Q] 

LPPI, Спасибо!!!
[Профиль]  [ЛС] 
Показать сообщения:    
Ответить на тему

Текущее время: Сегодня 13:35

Часовой пояс: GMT + 4



Вы не можете начинать темы
Вы не можете отвечать на сообщения
Вы не можете редактировать свои сообщения
Вы не можете удалять свои сообщения
Вы не можете голосовать в опросах
Вы не можете прикреплять файлы к сообщениям
Вы не можете скачивать файлы

▼ Вниз