ML
     
  Уважаемый Гость!
Вы можете поддержать проект и зарегистрироваться у наших партнеров - онлайн-стратегия MyLands. При регистрации в игре Вы получите код, который сможете активировать после регистрации на pirat.ca и получить 1000 дублонов.

Ваш код:
73640f24f8a0f579e128ea7346fd2db2b1009143
 
     

Игорь / Igor (Энтони Леондис / Anthony Leondis) [2008 г., Мультфильм, фэнтези, комедия, семейный, BDRip] Dub

Ответить на тему
 
Автор
Сообщение

Пост 30-Июл-2014 16:23

[Q] 

LPPI

-Игорь / Igor-«All men aren't created Evil»- Производство: США, Франция, Exodus Film Group, Exodus Productions
Жанр: Мультфильм, фэнтези, комедия, семейный
Год выпуска: 2008 г.
Продолжительность: 01:26:33
Мировая премьера: 19 сентября 2008
Российская премьера: 19 февраля 2009, «West»
Перевод: Профессиональный (полное дублирование)-Режиссер: Энтони Леондис / Anthony Leondis
Роли озвучивали: Джон Кьюсак, Майлин Класс, Робин Уолш, Мэтт МакКенна, Джон Клиз, Стив Бушеми, Шон Хейс, Джесс Харнелл, Эдди Иззард, Дженнифер Кулидж-Описание: В мире, населенном Безумными Учеными и Злыми Изобретателями, один талантливый помощник злого ученого мечтает сам стать ученым и выиграть ежегодную Злую Ярмарку Науки.- -Качество видео: BDRip
Контейнер: AVI
Видео кодек: XviD
Аудио кодек: AC3
Видео: 704x384 (1.83:1), 23.976 fps, XviD build 50 ~2009 kbps avg, 0.31 bit/pixel
Аудио: 48 kHz, AC3 Dolby Digital, 3/2 (L,C,R,l,r) + LFE ch, ~384 kbps
Cубтитры: отсутствуют
General
Complete name : D:\Igor.2008.BDRip.avi
Format : AVI
Format/Info : Audio Video Interleave
File size : 1.45 GiB
Duration : 1h 26mn
Overall bit rate : 2 403 Kbps
Writing application : VirtualDubMod 1.5.10.2 (build 2542/release)
Comment : 05.01.2011
Video
ID : 0
Format : MPEG-4 Visual
Format profile : Advanced [email protected]
Format settings, BVOP : 1
Format settings, QPel : No
Format settings, GMC : No warppoints
Format settings, Matrix : Custom
Codec ID : XVID
Codec ID/Hint : XviD
Duration : 1h 26mn
Bit rate : 2 010 Kbps
Width : 704 pixels
Height : 384 pixels
Display aspect ratio : 1.85:1
Frame rate : 23.976 fps
Color space : YUV
Chroma subsampling : 4:2:0
Bit depth : 8 bits
Scan type : Progressive
Compression mode : Lossy
Bits/(Pixel*Frame) : 0.310
Stream size : 1.22 GiB (84%)
Writing library : XviD 1.2.1 (UTC 2008-12-04)
Audio
ID : 1
Format : AC-3
Format/Info : Audio Coding 3
Mode extension : CM (complete main)
Format settings, Endianness : Big
Codec ID : 2000
Duration : 1h 26mn
Bit rate mode : Constant
Bit rate : 384 Kbps
Channel(s) : 6 channels
Channel positions : Front: L C R, Side: L R, LFE
Sampling rate : 48.0 KHz
Bit depth : 16 bits
Compression mode : Lossy
Stream size : 238 MiB (16%)
Alignment : Split accross interleaves
Interleave, duration : 42 ms (1.00 video frame)
Interleave, preload duration : 500 ms
Download / Скачать

Хотите скачать бесплатно? Зарегистрируйтесь на сайте (ссылка на регистрацию). Pirat.ca - самый быстрый торрент трекер в рунете!

Как скачивать  ·   Что такое торрент  ·   Рейтинг и ограничения

Токима

Лоцман

Пост 31-Июл-2014 16:16 (спустя 23 часа)

[Q] 

Мультфильм хрень полная... Зуб даю...
P. S. качество отличное
[Профиль]  [ЛС] 
Показать сообщения:    
Ответить на тему

Текущее время: Сегодня 22:30

Часовой пояс: GMT + 4



Вы не можете начинать темы
Вы не можете отвечать на сообщения
Вы не можете редактировать свои сообщения
Вы не можете удалять свои сообщения
Вы не можете голосовать в опросах
Вы не можете прикреплять файлы к сообщениям
Вы не можете скачивать файлы

▼ Вниз