ML
     
  Уважаемый Гость!
Вы можете поддержать проект и зарегистрироваться у наших партнеров - онлайн-стратегия MyLands. При регистрации в игре Вы получите код, который сможете активировать после регистрации на pirat.ca и получить 1000 дублонов.

Ваш код:
5af7de75d3db09b6a37bc8bab71b0e87ccde73d6
 
     

Приключения мистера Пибоди и Шермана / Mr. Peabody & Sherman (Роб Минкофф / Rob Minkoff) [2014 г., Мультфильм, фантастика, комедия, приключения, семейный, BDRip] Dub (Лицензия)

Ответить на тему
 
Автор
Сообщение

Пост 06-Авг-2014 15:26

[Q] 

LPPI

-Приключения мистера Пибоди и Шермана / Mr. Peabody & Sherman- Производство: США, Bullwinkle Studios, Classic Media Productions, DreamWorks Animation, Pacific Data Images (PDI)
Год выпуска: 2014 г.
Жанр: Мультфильм, фантастика, комедия, приключения, семейный
Продолжительность: 01:32:29
Мировая премьера: 8 января 2014
Российская премьера: 6 марта 2014, «Двадцатый Век Фокс СНГ»
Дата выхода DVD: 14 августа 2014, «Двадцатый Век Фокс СНГ»
Дата выхода Blu-Ray: 14 августа 2014, «Двадцатый Век Фокс СНГ»
Перевод: Профессиональный (полное дублирование) [Лицензия]-Режиссер: Роб Минкофф / Rob Minkoff
В ролях: Тай Буррелл, Макс Чарльз, Эриель Винтер, Стефен Колбер, Лесли Манн, Эллисон Джэнни, Стэнли Туччи, Том МакГрат, Лэйк Белл, Зак Каллисон-Описание: Мистер Пибоди — бизнесмен, изобретатель, ученый, нобелевский лауреат, гурман, двукратный олимпийский чемпион и гений… который кроме всего прочего является собакой. При помощи своего самого неординарного изобретения — машины ВЕЙБЕК — мистер Пибоди и его приемный сын Шерман мгновенно перемещаются в прошлое, где становятся свидетелями самых важных исторических событий и общаются с известными историческими персонажами. Но когда Шерман нарушает правила путешествий во времени, нашим героям приходится вновь отправиться в путь — на сей раз с целью восстановления цепи исторических событий и спасения будущего. Кроме того, мистеру Пибоди предстоит справиться с самой сложной для него задачей — стать настоящим отцом для Шермана.- -Качество видео: BDRip
Контейнер: AVI
Видео кодек: XviD
Аудио кодек: AC3
Видео: 704x384 (1.83:1), 23.976 fps, XviD build 65 ~1790 kbps avg, 0.28 bit/pixel
Аудио: 48 kHz, AC3 Dolby Digital, 3/2 (L,C,R,l,r) + LFE ch, ~448 kbps
Cубтитры: отсутствуют
General
Complete name : D:\Priklyucheniya.mistera.Pibodi.i.Shermana.2014.RUS.BDRip.XviD.AC3.avi
Format : AVI
Format/Info : Audio Video Interleave
File size : 1.45 GiB
Duration : 1h 32mn
Overall bit rate : 2 248 Kbps
Writing application : VirtualDubMod 1.5.10.2 (build 2542/release)
Comment : 05.08.2014
Video
ID : 0
Format : MPEG-4 Visual
Format profile : Advanced [email protected]
Format settings, BVOP : 1
Format settings, QPel : No
Format settings, GMC : No warppoints
Format settings, Matrix : Custom
Codec ID : XVID
Codec ID/Hint : XviD
Duration : 1h 32mn
Bit rate : 1 791 Kbps
Width : 704 pixels
Height : 384 pixels
Display aspect ratio : 1.85:1
Frame rate : 23.976 fps
Color space : YUV
Chroma subsampling : 4:2:0
Bit depth : 8 bits
Scan type : Progressive
Compression mode : Lossy
Bits/(Pixel*Frame) : 0.276
Stream size : 1.16 GiB (80%)
Writing library : XviD 65
Audio
ID : 1
Format : AC-3
Format/Info : Audio Coding 3
Mode extension : CM (complete main)
Format settings, Endianness : Big
Codec ID : 2000
Duration : 1h 32mn
Bit rate mode : Constant
Bit rate : 448 Kbps
Channel(s) : 6 channels
Channel positions : Front: L C R, Side: L R, LFE
Sampling rate : 48.0 KHz
Bit depth : 16 bits
Compression mode : Lossy
Stream size : 296 MiB (20%)
Alignment : Split accross interleaves
Interleave, duration : 42 ms (1.00 video frame)
Interleave, preload duration : 500 ms
Download / Скачать

Хотите скачать бесплатно? Зарегистрируйтесь на сайте (ссылка на регистрацию). Pirat.ca - самый быстрый торрент трекер в рунете!

Как скачивать  ·   Что такое торрент  ·   Рейтинг и ограничения

Пост 06-Авг-2014 22:24 (спустя 6 часов)

Топик был перенесен из форума Зарубежное Кино (Трюм) в форум Новинки (HD|DVD|BD| TV|SAT|PDTV| - Rips)
kugesan
 

Jek@

Легенда

Пост 08-Авг-2014 15:43 (спустя 2 дня)

[Q] 

Спасибо!!! .
[Профиль]  [ЛС] 

Skat.56

Гроза морей

448

Пост 10-Авг-2014 12:08 (спустя 1 день 20 часов)

[Q] 

Мне понравилось признание Клинтона "Я хуже делал"
Короче смотрибельно)
[Профиль]  [ЛС] 

Пост 15-Сен-2014 13:08 (спустя 1 месяц 5 дней)

Топик был перенесен из форума Новинки (HD|DVD|BD| TV|SAT|PDTV| - Rips) в форум Зарубежные полнометражные мультфильмы
kugesan
 

lexaspirit

Пост 08-Сен-2015 12:28 (спустя 1 год)

[Q] 

Детям мильт самое то

_________________
-------------------- ----------------------
[Профиль]  [ЛС] 

platon18

Гроза морей

Пост 14-Окт-2015 11:29 (спустя 1 месяц 5 дней)

[Q] 

мне совсем не понравился
[Профиль]  [ЛС] 
Показать сообщения:    
Ответить на тему

Текущее время: Сегодня 14:09

Часовой пояс: GMT + 4



Вы не можете начинать темы
Вы не можете отвечать на сообщения
Вы не можете редактировать свои сообщения
Вы не можете удалять свои сообщения
Вы не можете голосовать в опросах
Вы не можете прикреплять файлы к сообщениям
Вы не можете скачивать файлы

▼ Вниз