ML
     
  Уважаемый Гость!
Вы можете поддержать проект и зарегистрироваться у наших партнеров - онлайн-стратегия MyLands. При регистрации в игре Вы получите код, который сможете активировать после регистрации на pirat.ca и получить 1000 дублонов.

Ваш код:
0fcd44bd35319f69313aa6e53b31c51cbff1c942
 
     

Букашки. Приключение в Долине муравьев / Minuscule - La vallée des fourmis perdues (Хелен Жиро / Hélène Giraud, Томас Забо / Thomas Szabo) [2013 г., Мультфильм, приключения, семейный, HDRip] «CD Land»

Ответить на тему
 
Автор
Сообщение

Пост 10-Авг-2014 22:31

[Q] 

Goodwill

-Букашки. Приключение в Долине муравьев / Minuscule - La vallée des fourmis perdues-- Производство: Франция, Futurikon, Entre Chien et Loup, Futurikon Production II
Год выпуска: 2013 г.
Жанр: Мультфильм, приключения, семейный
Продолжительность: 01:28:26
Мировая премьера: 17 ноября 2013
Российская премьера: 29 мая 2014, «Каравелла DDC»
Релиз на DVD: 7 августа 2014, «CD Land»,
Перевод: Не требуется
Режиссер: Хелен Жиро / Hélène Giraud, Томас Забо / Thomas Szabo-Описание: Активные и любознательные черные муравьишки обнаруживают брошенную после пикника коробку с сахаром. Дружный отряд муравьишек вместе с Божьей коровкой решают переправить лакомство в муравейник. Но сладкая коробка уже успела нарушить спокойствие во всей долине, и свои планы на лакомство появились у других обитателей леса, в частности — у злобных красных муравьев-захватчиков. А, стало быть, на пути к заветной цели черным муравьишкам предстоит преодолеть массу опасностей и приключений.-
Качество видео: HDRip
Контейнер: AVI
Видео кодек: XviD
Аудио кодек: AC3
Видео: 720x304 (2.37:1), 23.976 fps, XviD MPEG-4 ~1895 kbps avg, 0.36 bit/pixel
Аудио: 48 kHz, AC3 Dolby Digital, 3/2 (L,C,R,l,r) + LFE ch, ~448 kbps
Cубтитры: отсутствуют
Общее
Полное имя : W:\Minuscule.The.Valley.Of.The.Lost.Ants.2013.HDRip.avi
Формат : AVI
Формат/Информация : Audio Video Interleave
Размер файла : 1,45 Гбайт
Продолжительность : 1 ч. 28 м.
Общий поток : 2353 Кбит/сек
Название фильма : Minuscule - La vallee des fourmis perdues (2013)
Видео
Идентификатор : 0
Формат : MPEG-4 Visual
Профиль формата : Advanced [email protected]
Параметр BVOP формата : 2
Параметр QPel формата : Нет
Параметр GMC формата : Без точки перехода
Параметр матрицы формата : Default (H.263)
Режим смешивания : Сжатый битовый поток
Идентификатор кодека : XVID
Идентификатор кодека/Подсказка : XviD
Продолжительность : 1 ч. 28 м.
Битрейт : 1896 Кбит/сек
Ширина : 720 пикс.
Высота : 304 пикс.
Соотношение сторон : 2,35:1
Частота кадров : 23,976 кадр/сек
Цветовое пространство : YUV
Подвыборка цветности : 4:2:0
Битовая глубина : 8 бит
Тип развёртки : Прогрессивная
Метод сжатия : С потерями
Бит/(Пиксели*Кадры) : 0.361
Размер потока : 1,17 Гбайт (81%)
Библиотека кодирования : XviD 64
Аудио
Идентификатор : 1
Формат : AC-3
Формат/Информация : Audio Coding 3
Расширение режима : CM (complete main)
Идентификатор кодека : 2000
Продолжительность : 1 ч. 28 м.
Вид битрейта : Постоянный
Битрейт : 448 Кбит/сек
Канал(ы) : 6 канала(ов)
Расположение каналов : Front: L C R, Side: L R, LFE
Частота : 48,0 КГц
Битовая глубина : 16 бит
Метод сжатия : С потерями
Размер потока : 283 Мбайт (19%)
Выравнивание : Соединение по промежуткам
Продолжительность промежутка : 42 мс. (1,00 видеокадр)
Время предзагрузки промежутка : 512 ms
Download / Скачать

Хотите скачать бесплатно? Зарегистрируйтесь на сайте (ссылка на регистрацию). Pirat.ca - самый быстрый торрент трекер в рунете!

Как скачивать  ·   Что такое торрент  ·   Рейтинг и ограничения

DENON2507

Гроза морей

2434

Пост 10-Авг-2014 23:02 (спустя 30 минут)

[Q] 

Классные мульты! Лови бочку
[Профиль]  [ЛС] 

Luzhok

Легенда

Пост 11-Авг-2014 09:26 (спустя 10 часов)

[Q] 

релизеру спасибо!
DENON2507, надо срочно заказать авторский перевод! )))))))
[Профиль]  [ЛС] 

Goodwill ®

3419

Пост 11-Авг-2014 11:34 (спустя 2 часа 8 минут)

[Q] 

567500релизеру спасибо!
DENON2507, надо срочно заказать авторский перевод! )))))))
Если есть такая возможность.... то заказывайте... хотелось бы сие творение увидеть в переводе?

_________________
Неведение - источник зла.
Торрентом не пользуюсь, нет необходимости.
[Профиль]  [ЛС] 

Пост 11-Авг-2014 12:33 (спустя 59 минут)

Топик был перенесен из форума Зарубежное Кино (Трюм) в форум Новинки (HD|DVD|BD| TV|SAT|PDTV| - Rips)
kugesan
 

Luzhok

Легенда

Пост 11-Авг-2014 13:18 (спустя 1 час 44 минуты)

[Q] 

567530хотелось бы сие творение увидеть в переводе
действительно, невыносимо, когда насекомые жжжжжужжжжжат на иностранном языке
bj
[Профиль]  [ЛС] 

Jek@

Легенда

Пост 11-Авг-2014 14:41 (спустя 1 час 22 минуты)

[Q] 

Спасибо!!! .
[Профиль]  [ЛС] 

Loxly

Гроза морей

Пост 12-Авг-2014 20:17 (спустя 1 день 5 часов)

[Q] 

Класс!
Раздающему респект!
[Профиль]  [ЛС] 

Alex Yz

Гроза морей

Пост 13-Авг-2014 01:29 (спустя 5 часов)

[Q] 

Спасибо!!! Вы лучшие!
[Профиль]  [ЛС] 

Skat.56

Гроза морей

448

Пост 13-Авг-2014 20:54 (спустя 19 часов)

[Q] 

567559
567530хотелось бы сие творение увидеть в переводе
действительно, невыносимо, когда насекомые жжжжжужжжжжат на иностранном языке
Они как бы всегда жжужат на иностранном..............И только чудесное средство co может всем вам помочь dk
А мульт прикольный.)
[Профиль]  [ЛС] 

s_s

Гроза морей

Пост 15-Авг-2014 11:55 (спустя 1 день 15 часов)

[Q] 

спасибо, давно хотел!

_________________
в себе самом добра со злом
[Профиль]  [ЛС] 

Полтос

Флибустьер

Пост 15-Авг-2014 20:40 (спустя 8 часов)

[Q] 

Достойное полнометражное продолжение серии краткометражных фильмов о жизни насекомых в мире возле людей, но с их минимальным присутствием. Отличная природная натура и графика, доброта сюжета, доступность изложения, делают мультфильмы этой серии просто неподражаемыми и обязательными к просмотру не только детям, но и их родителям для привития любви к окружающей их природе и миру!
Всем качать!!! Автору респект!!!

_________________
Первый закон Прапорщика: Всё что поднимаемо - относительно!)
[Профиль]  [ЛС] 

Пост 15-Сен-2014 13:07 (спустя 30 дней)

Топик был перенесен из форума Новинки (HD|DVD|BD| TV|SAT|PDTV| - Rips) в форум Зарубежные полнометражные мультфильмы
kugesan
 
Показать сообщения:    
Ответить на тему

Текущее время: Сегодня 02:08

Часовой пояс: GMT + 4



Вы не можете начинать темы
Вы не можете отвечать на сообщения
Вы не можете редактировать свои сообщения
Вы не можете удалять свои сообщения
Вы не можете голосовать в опросах
Вы не можете прикреплять файлы к сообщениям
Вы не можете скачивать файлы

▼ Вниз