ML
     
  Уважаемый Гость!
Вы можете поддержать проект и зарегистрироваться у наших партнеров - онлайн-стратегия MyLands. При регистрации в игре Вы получите код, который сможете активировать после регистрации на pirat.ca и получить 1000 дублонов.

Ваш код:
8dcb839cf1b47e56d6dc42d17f26b3e4822e9aee
 
     

Оз: Возвращение в Изумрудный Город / Legends of Oz: Dorothy's Return (Уилл Финн / Will Finn, Дэн Ст. Пьер / Dan St. Рierre) [2013 г., мультфильм, мюзикл, семейный, BDRip-AVC ] Dub

Ответить на тему
 
Автор
Сообщение

Пост 17-Авг-2014 18:13

[Q] 

kugesan

-Оз: Возвращение в Изумрудный Город
Legends of Oz: Dorothy's Return
«There's trouble in OZ...»- Производство: США, Индия / Prana Animation Studios, Prana Studios, Summertime Entertainment (II)
Год выпуска: 2013 г.
Жанр: мультфильм, мюзикл, семейный
Продолжительность: 01:32:02-Премьера (мир): 14 июня 2013, ...
Премьера (РФ): 10 июля 2014, «Каропрокат», «All Media» 3D
Релиз на DVD: 19 августа 2014, «CD Land», ...
Перевод: Профессиональный (полное дублирование)-Режиссер: Уилл Финн / Will Finn, Дэн Ст. Пьер / Dan St. Рierre
В ролях: Лиа Мишель, Патрик Стюарт, Джеймс Белуши, Дэн Эйкройд, Келси Грэммер, Меган Хилти, Хью Дэнси, Оливер Платт, Бернадетт Питерс, Мартин Шорт-Описание:
Дороти снова магическим образом переносится в страну Оз, чтобы спасти от беды ее жителей. Но оказывается, что старые друзья Дороти — Страшила, Железный Дровосек и Храбрый Лев — исчезли. Путешествуя по стране в поисках своих друзей, Дороти встречает новых попутчиков — Капитана Зефира, Фарфоровую Принцессу и филина Савву. Дороти должна помочь таким разным героям объединиться, чтобы одолеть нового злодея — шута Джестера, который хочет захватить страну Оз при помощи черной магии.-Качество видео: BDRip-AVC
Контейнер: MKV
Видео кодек: AVC ([email protected])
Аудио кодек: AC3
Видео: AVC at 2079 Кбит/сек: 960 x 540 (1.778) at 23.976 fps
Аудио: AC-3 at 192 Кбит/сек: 2 канала, 48,0 КГц
Cубтитры: Английские (Full + SDH)
Код:
Общее
Уникальный идентификатор                 : 214052872983097836798253682810770977490 (0xA1091572587E4C04865A2C95C2D872D2)
Полное имя                               : E:\uTorDown\Oz.Vozvrascheniye.v.Izumrudnyi.Gorod.BDRip.mkv
Формат                                   : Matroska
Версия формата                           : Version 4 / Version 2
Размер файла                             : 1,46 Гбайт
Продолжительность                        : 1 ч. 32 м.
Общий поток                              : 2273 Кбит/сек
Дата кодирования                         : UTC 2014-08-16 18:57:44
Программа кодирования                    : mkvmerge v5.9.0 ('On The Loose') built on Dec 15 2012 16:39:58
Библиотека кодирования                   : libebml v1.3.0 + libmatroska v1.4.0
Видео
Идентификатор                            : 1
Формат                                   : AVC
Формат/Информация                        : Advanced Video Codec
Профиль формата                          : [email protected]
Параметр CABAC формата                   : Да
Параметр ReFrames формата                : 12 кадров
Идентификатор кодека                     : V_MPEG4/ISO/AVC
Продолжительность                        : 1 ч. 32 м.
Битрейт                                  : 2079 Кбит/сек
Ширина                                   : 960 пикселей
Высота                                   : 540 пикселей
Соотношение сторон                       : 16:9
Режим частоты кадров                     : Постоянный
Частота кадров                           : 23,976 кадра/сек
Цветовое пространство                    : YUV
Субдискретизация насыщенности            : 4:2:0
Битовая глубина                          : 8 бит
Тип развёртки                            : Прогрессивная
Бит/(Пиксели*Кадры)                      : 0.167
Размер потока                            : 1,31 Гбайт (90%)
Заголовок                                : potroks
Библиотека кодирования                   : x264 core 130 r2273 b3065e6
Настройки программы                      : cabac=1 / ref=12 / deblock=1:-1:-1 / analyse=0x3:0x133 / me=umh / subme=11 / psy=1 / psy_rd=1.03:0.05 / mixed_ref=1 / me_range=48 / chroma_me=1 / trellis=2 / 8x8dct=1 / cqm=0 / deadzone=21,11 / fast_pskip=0 / chroma_qp_offset=-3 / threads=9 / lookahead_threads=2 / sliced_threads=0 / nr=0 / decimate=0 / interlaced=0 / bluray_compat=0 / constrained_intra=0 / bframes=13 / b_pyramid=2 / b_adapt=2 / b_bias=0 / direct=3 / weightb=1 / open_gop=0 / weightp=2 / keyint=250 / keyint_min=23 / scenecut=40 / intra_refresh=0 / rc_lookahead=60 / rc=2pass / mbtree=0 / bitrate=2079 / ratetol=1.0 / qcomp=0.70 / qpmin=0 / qpmax=69 / qpstep=4 / cplxblur=20.0 / qblur=0.5 / vbv_maxrate=50000 / vbv_bufsize=62500 / nal_hrd=none / ip_ratio=1.35 / pb_ratio=1.25 / aq=1:0.80
Язык                                     : English
Default                                  : Да
Forced                                   : Нет
Аудио
Идентификатор                            : 2
Формат                                   : AC-3
Формат/Информация                        : Audio Coding 3
Расширение режима                        : CM (complete main)
Параметр Endianness формата              : Big
Идентификатор кодека                     : A_AC3
Продолжительность                        : 1 ч. 32 м.
Вид битрейта                             : Постоянный
Битрейт                                  : 192 Кбит/сек
Каналы                                   : 2 канала
Расположение каналов                     : Front: L R
Частота                                  : 48,0 КГц
Битовая глубина                          : 16 бит
Метод сжатия                             : С потерями
Размер потока                            : 126 Мбайт (8%)
Заголовок                                : Dub | DD 2.0 @ 192 kbps - CD Land
Язык                                     : Russian
Default                                  : Да
Forced                                   : Да
Текст #1
Идентификатор                            : 3
Формат                                   : UTF-8
Идентификатор кодека                     : S_TEXT/UTF8
Идентификатор кодека/Информация          : UTF-8 Plain Text
Язык                                     : English
Default                                  : Нет
Forced                                   : Нет
Текст #2
Идентификатор                            : 4
Формат                                   : UTF-8
Идентификатор кодека                     : S_TEXT/UTF8
Идентификатор кодека/Информация          : UTF-8 Plain Text
Заголовок                                : SDH
Язык                                     : English
Default                                  : Нет
Forced                                   : Нет
Меню
00:00:00.000                             : en:Chapter 01
00:03:40.970                             : en:Chapter 02
00:05:14.397                             : en:Chapter 03
00:08:56.786                             : en:Chapter 04
00:12:02.012                             : en:Chapter 05
00:15:57.331                             : en:Chapter 06
00:19:32.629                             : en:Chapter 07
00:22:26.887                             : en:Chapter 08
00:25:17.182                             : en:Chapter 09
00:28:02.055                             : en:Chapter 10
00:29:57.337                             : en:Chapter 11
00:33:33.761                             : en:Chapter 12
00:35:27.125                             : en:Chapter 13
00:38:47.533                             : en:Chapter 14
00:43:44.580                             : en:Chapter 15
00:46:06.764                             : en:Chapter 16
00:48:36.580                             : en:Chapter 17
00:51:07.647                             : en:Chapter 18
00:54:42.737                             : en:Chapter 19
00:56:01.441                             : en:Chapter 20
00:59:25.853                             : en:Chapter 21
01:04:15.685                             : en:Chapter 22
01:06:55.011                             : en:Chapter 23
01:11:13.936                             : en:Chapter 24
01:14:10.904                             : en:Chapter 25
01:17:43.367                             : en:Chapter 26
01:21:38.143                             : en:Chapter 27
01:24:06.332                             : en:Chapter 28
-
Download / Скачать

Хотите скачать бесплатно? Зарегистрируйтесь на сайте (ссылка на регистрацию). Pirat.ca - самый быстрый торрент трекер в рунете!

Как скачивать  ·   Что такое торрент  ·   Рейтинг и ограничения

Пост 18-Авг-2014 08:51 (спустя 14 часов)

Топик был перенесен из форума Зарубежное Кино (Трюм) в форум Новинки (HD|DVD|BD| TV|SAT|PDTV| - Rips)
ara1205
 

motrin

Морской Волк

45

Пост 19-Авг-2014 01:50 (спустя 1 день 7 часов)

[Q] 

Красивый семейный мульт! Завтра будем смотреть Всем качать!!!
[Профиль]  [ЛС] 

ALEHAN

Легенда

Пост 04-Сен-2014 21:37 (спустя 16 дней)

[Q] 

неплохой мульт. Приятно, что качественные мульты делают не только дримворкс
[Профиль]  [ЛС] 
Показать сообщения:    
Ответить на тему

Текущее время: Сегодня 04:17

Часовой пояс: GMT + 4



Вы не можете начинать темы
Вы не можете отвечать на сообщения
Вы не можете редактировать свои сообщения
Вы не можете удалять свои сообщения
Вы не можете голосовать в опросах
Вы не можете прикреплять файлы к сообщениям
Вы не можете скачивать файлы

▼ Вниз