ML
     
  Уважаемый Гость!
Вы можете поддержать проект и зарегистрироваться у наших партнеров - онлайн-стратегия MyLands. При регистрации в игре Вы получите код, который сможете активировать после регистрации на pirat.ca и получить 1000 дублонов.

Ваш код:
11f49771fdf057c9d51610e4a0925c3b46ddb655
 
     

Оз: Возвращение в Изумрудный Город / Legends of Oz: Dorothy's Return (Уилл Финн / Will Finn, Дэн Ст. Пьер / Dan St. Рierre) [2013 г., мультфильм, мюзикл, семейный, HDRip] Dub

Ответить на тему
 
Автор
Сообщение

Пост 17-Авг-2014 18:36

[Q] 

kugesan

-Оз: Возвращение в Изумрудный Город
Legends of Oz: Dorothy's Return
«There's trouble in OZ...»- Производство: США, Индия / Prana Animation Studios, Prana Studios, Summertime Entertainment (II)
Год выпуска: 2013 г.
Жанр: мультфильм, мюзикл, семейный
Продолжительность: 01:32:02-Премьера (мир): 14 июня 2013, ...
Премьера (РФ): 10 июля 2014, «Каропрокат», «All Media» 3D
Релиз на DVD: 19 августа 2014, «CD Land», ...
Перевод: Профессиональный (полное дублирование)-Режиссер: Уилл Финн / Will Finn, Дэн Ст. Пьер / Dan St. Рierre
В ролях: Лиа Мишель, Патрик Стюарт, Джеймс Белуши, Дэн Эйкройд, Келси Грэммер, Меган Хилти, Хью Дэнси, Оливер Платт, Бернадетт Питерс, Мартин Шорт-Описание:
Дороти снова магическим образом переносится в страну Оз, чтобы спасти от беды ее жителей. Но оказывается, что старые друзья Дороти — Страшила, Железный Дровосек и Храбрый Лев — исчезли. Путешествуя по стране в поисках своих друзей, Дороти встречает новых попутчиков — Капитана Зефира, Фарфоровую Принцессу и филина Савву. Дороти должна помочь таким разным героям объединиться, чтобы одолеть нового злодея — шута Джестера, который хочет захватить страну Оз при помощи черной магии.-Качество видео: HDRip
Контейнер: AVI
Видео кодек: XviD
Аудио кодек: AC3
Видео: MPEG-4 Visual at 1815 Кбит/сек: 720 x 400 (1.800) at 23.976 fps, 0.26 bit/pixel
Аудио: AC-3 at 448 Кбит/сек: 6 каналов, 48,0 КГц
Cубтитры: отсутствуют
-
Код:
Общее
Полное имя                               : E:\uTorDown\Oz.Vozvrashenie.v.Izumrudnyi.Gorod.2013.D.HDRip.avi
Формат                                   : AVI
Формат/Информация                        : Audio Video Interleave
Размер файла                             : 1,46 Гбайт
Продолжительность                        : 1 ч. 32 м.
Общий поток                              : 2272 Кбит/сек
Программа кодирования                    : VirtualDubMod 1.5.10.3 | www.virtualdub-fr.org || (build 2550/release)
Библиотека кодирования                   : VirtualDubMod build 2550/release
Видео
Идентификатор                            : 0
Формат                                   : MPEG-4 Visual
Профиль формата                          : Advanced [email protected]
Параметр BVOP формата                    : 2
Параметр QPel формата                    : Нет
Параметр GMC формата                     : Без точки перехода
Параметр матрицы формата                 : Default (MPEG)
Идентификатор кодека                     : XVID
Идентификатор кодека/Подсказка           : XviD
Продолжительность                        : 1 ч. 32 м.
Битрейт                                  : 1815 Кбит/сек
Ширина                                   : 720 пикселей
Высота                                   : 400 пикселей
Соотношение сторон                       : 16:9
Частота кадров                           : 23,976 кадра/сек
Цветовое пространство                    : YUV
Субдискретизация насыщенности            : 4:2:0
Битовая глубина                          : 8 бит
Тип развёртки                            : Прогрессивная
Метод сжатия                             : С потерями
Бит/(Пиксели*Кадры)                      : 0.263
Размер потока                            : 1,17 Гбайт (80%)
Библиотека кодирования                   : XviD 1.2.1 (UTC 2008-12-04)
Аудио
Идентификатор                            : 1
Формат                                   : AC-3
Формат/Информация                        : Audio Coding 3
Расширение режима                        : CM (complete main)
Параметр Endianness формата              : Big
Идентификатор кодека                     : 2000
Продолжительность                        : 1 ч. 32 м.
Вид битрейта                             : Постоянный
Битрейт                                  : 448 Кбит/сек
Каналы                                   : 6 каналов
Расположение каналов                     : Front: L C R, Side: L R, LFE
Частота                                  : 48,0 КГц
Битовая глубина                          : 16 бит
Метод сжатия                             : С потерями
Размер потока                            : 295 Мбайт (20%)
Выравнивание                             : Разделение по промежуткам
Продолжительность промежутка             : 42  мс. (1,00 видеокадр)
Время предзагрузки промежутка            : 500  мс.
-
Download / Скачать

Хотите скачать бесплатно? Зарегистрируйтесь на сайте (ссылка на регистрацию). Pirat.ca - самый быстрый торрент трекер в рунете!

Как скачивать  ·   Что такое торрент  ·   Рейтинг и ограничения

Egorik-pro

Лоцман

Пост 17-Авг-2014 20:11 (спустя 1 час 34 минуты)

[Q] 

нормально....спасибо Всем качать!!!
[Профиль]  [ЛС] 

Пост 18-Авг-2014 08:51 (спустя 12 часов)

Топик был перенесен из форума Зарубежное Кино (Трюм) в форум Новинки (HD|DVD|BD| TV|SAT|PDTV| - Rips)
ara1205
 

robb71

Морской Волк

Пост 24-Авг-2014 13:56 (спустя 6 дней)

[Q] 

скачаю дочке
[Профиль]  [ЛС] 

bolin

Флибустьер

Пост 25-Авг-2014 17:34 (спустя 1 день 3 часа)

[Q] 

АВТОР БОЛЬШОЕ СПАСИБО!!! ЗАБИРАЮ ДЕТЯМ!
[Профиль]  [ЛС] 

srg078rus

Корсар

97

Пост 25-Авг-2014 18:12 (спустя 37 минут)

[Q] 

Спасибо!!! Дочка просила)) Лови бочку

_________________
[Профиль]  [ЛС] 

Naylo

Морской Волк

Пост 26-Авг-2014 00:18 (спустя 6 часов)

[Q] 

детишкам посмотреть

_________________
[Профиль]  [ЛС] 

KoNiaL_KCC

Гроза морей

Пост 26-Авг-2014 22:33 (спустя 22 часа)

[Q] 

качество нормальное, сюжет полный бред
[Профиль]  [ЛС] 

Jek@

Легенда

Пост 27-Авг-2014 14:39 (спустя 16 часов)

[Q] 

Спасибо!!! .
[Профиль]  [ЛС] 

anatolyul

Морской Волк

Пост 16-Сен-2014 10:31 (спустя 19 дней)

[Q] 

спасибо
Спасибо!!!
[Профиль]  [ЛС] 

Пост 19-Сен-2014 10:24 (спустя 2 дня 23 часа)

Топик был перенесен из форума Новинки (HD|DVD|BD| TV|SAT|PDTV| - Rips) в форум Зарубежные полнометражные мультфильмы
LPPI
 

ATHLON

Шкипер

12

Пост 15-Фев-2015 12:25 (спустя 4 месяца 29 дней)

[Q] 

что то не пошло, но автору спасибо Раздающему респект!
[Профиль]  [ЛС] 

lexaspirit

Пост 08-Фев-2016 13:16 (спустя 11 месяцев 21 день)

[Q] 

Спасибо. Ребенку понравилось

_________________
-------------------- ----------------------
[Профиль]  [ЛС] 
Показать сообщения:    
Ответить на тему

Текущее время: Сегодня 03:14

Часовой пояс: GMT + 4



Вы не можете начинать темы
Вы не можете отвечать на сообщения
Вы не можете редактировать свои сообщения
Вы не можете удалять свои сообщения
Вы не можете голосовать в опросах
Вы не можете прикреплять файлы к сообщениям
Вы не можете скачивать файлы

▼ Вниз