ML
     
  Уважаемый Гость!
Вы можете поддержать проект и зарегистрироваться у наших партнеров - онлайн-стратегия MyLands. При регистрации в игре Вы получите код, который сможете активировать после регистрации на pirat.ca и получить 1000 дублонов.

Ваш код:
73640f24f8a0f579e128ea7346fd2db2b1009143
 
     

Рио 2 / Rio 2 (Карлос Салдана / Carlos Saldanha) [2014 г., Мультфильм, комедия, приключения, семейный, BDRip, 720p] Dub [Rus, Ukr] (Лицензия) + Original (Eng) + Sub (Rus, Ukr, Eng)

Ответить на тему
 
Автор
Сообщение

Пост 18-Авг-2014 09:28

[Q] 

LPPI

-Рио 2 / Rio 2- Производство: США, 20th Century Fox Animation, Blue Sky Studios
Жанр: Мультфильм, комедия, приключения, семейный
Год выпуска: 2014 г.
Продолжительность: 01:41:11
Мировая премьера: 20 марта 2014
Российская премьера: 20 марта 2014, «Двадцатый Век Фокс СНГ»
Перевод: Профессиональный (полное дублирование) [Rus, Лицензия]
Перевод 2: Профессиональный (полное дублирование) [Ukr, Лицензия]
Оригинальный аудиопоток: английский-Режиссер: Карлос Салдана / Carlos Saldanha
Роли озвучивали: Энн Хэтэуэй, Лесли Манн, Джейми Фокс, Джесси Айзенберг, Родриго Санторо, Энди Гарсиа, Трэйси Морган, Уилл Ай Эм, Джемейн Клемент, Кристин Ченоуэт-Описание: Голубчик, Жемчужинка и их трое детей живут счастливой жизнью в волшебном городе Рио-де-Жанейро. Когда Жемчужинка решает, что их детям нужно научиться жить как настоящим птицам, она настаивает на авантюрной поездке в дебри реки Амазонки. Там, пытаясь вписаться в новое окружение, Голубчик начинает беспокоиться, что может потерять Жемчужинку и детей, идущих на зов дикой природы.- -Качество видео: BDRip
Контейнер: MKV
Стандарт разрешения: 720p
Видео кодек: H.264
Аудио кодек: DTS / AC3
Видео: 1280x534 (2.40:1), 23.976 fps, MPEG-4 AVC, ~5937 kbps avg, 0.362 bit/pixel
Аудио: 48 kHz, DTS Dolby Digital, 3/2 (L,C,R,l,r) + LFE ch, ~768 kbps (RUS)
Аудио #2: 48 kHz, AC3 Dolby Digital, 3/2 (L,C,R,l,r) + LFE ch, ~448 kbps (UKR)
Аудио #3: 48 kHz, DTS Dolby Digital, 3/2 (L,C,R,l,r) + LFE ch, ~1509 kbps (ENG)
Cубтитры: Русские (полные), украинские (полные), английские (полные)
Формат субтитров: softsub (SRT)
Главы: присутствуют, сохранены оригинальные
General
Unique ID : 191579158632935739657503850268089900670 (0x9020CDC802B171F4A3D607CDBFFFDE7E)
Complete name : D:\Rio.2.2014.720p.BluRay.Rus.Ukr.Eng.mkv
Format : Matroska
Format version : Version 2
File size : 6.12 GiB
Duration : 1h 41mn
Overall bit rate : 8 664 Kbps
Encoded date : UTC 2014-07-09 07:54:09
Writing application : mkvmerge v5.2.0 ('I can't explain') built on Dec 18 2011 18:12:03
Writing library : libebml v1.2.3 + libmatroska v1.3.0
Video
ID : 1
Format : AVC
Format/Info : Advanced Video Codec
Format profile : [email protected]
Format settings, CABAC : Yes
Format settings, ReFrames : 12 frames
Codec ID : V_MPEG4/ISO/AVC
Duration : 1h 41mn
Bit rate : 5 937 Kbps
Width : 1 280 pixels
Height : 534 pixels
Display aspect ratio : 2.40:1
Frame rate mode : Constant
Frame rate : 23.976 fps
Color space : YUV
Chroma subsampling : 4:2:0
Bit depth : 8 bits
Scan type : Progressive
Bits/(Pixel*Frame) : 0.362
Stream size : 4.08 GiB (67%)
Writing library : x264 core 142 r2431 ac76440
Encoding settings : cabac=1 / ref=12 / deblock=1:-3:-2 / analyse=0x3:0x113 / me=umh / subme=11 / psy=1 / psy_rd=1.07:0.00 / mixed_ref=1 / me_range=32 / chroma_me=1 / trellis=2 / 8x8dct=1 / cqm=0 / deadzone=21,11 / fast_pskip=1 / chroma_qp_offset=-4 / threads=6 / lookahead_threads=1 / sliced_threads=0 / nr=0 / decimate=1 / interlaced=0 / bluray_compat=0 / constrained_intra=0 / bframes=9 / b_pyramid=2 / b_adapt=2 / b_bias=0 / direct=3 / weightb=1 / open_gop=0 / weightp=2 / keyint=240 / keyint_min=23 / scenecut=40 / intra_refresh=0 / rc_lookahead=40 / rc=2pass / mbtree=0 / bitrate=5937 / ratetol=1.0 / qcomp=0.60 / qpmin=10 / qpmax=69 / qpstep=4 / cplxblur=20.0 / qblur=0.5 / vbv_maxrate=50000 / vbv_bufsize=62500 / nal_hrd=none / filler=0 / ip_ratio=1.40 / pb_ratio=1.30 / aq=1:0.90
Language : English
Default : Yes
Forced : No
Audio #1
ID : 2
Format : DTS
Format/Info : Digital Theater Systems
Mode : 16
Format settings, Endianness : Big
Codec ID : A_DTS
Duration : 1h 41mn
Bit rate mode : Constant
Bit rate : 768 Kbps
Channel(s) : 6 channels
Channel positions : Front: L C R, Side: L R, LFE
Sampling rate : 48.0 KHz
Bit depth : 24 bits
Compression mode : Lossy
Stream size : 556 MiB (9%)
Title : DTS 5.1 @ 768 kbps - Dub
Language : Russian
Default : No
Forced : No
Audio #2
ID : 3
Format : AC-3
Format/Info : Audio Coding 3
Mode extension : CM (complete main)
Format settings, Endianness : Big
Codec ID : A_AC3
Duration : 1h 41mn
Bit rate mode : Constant
Bit rate : 448 Kbps
Channel(s) : 6 channels
Channel positions : Front: L C R, Side: L R, LFE
Sampling rate : 48.0 KHz
Bit depth : 16 bits
Compression mode : Lossy
Stream size : 324 MiB (5%)
Title : АС3 5.1 @ 448 kbps - Dub
Language : Ukrainian
Default : No
Forced : No
Audio #3
ID : 4
Format : DTS
Format/Info : Digital Theater Systems
Format profile : ES
Mode : 16
Format settings, Endianness : Big
Codec ID : A_DTS
Duration : 1h 41mn
Bit rate mode : Constant
Bit rate : 1 509 Kbps
Channel(s) : 6 channels
Channel positions : Front: L C R, Side: L R, LFE
Sampling rate : 48.0 KHz
Bit depth : 24 bits
Compression mode : Lossy
Stream size : 1.07 GiB (17%)
Title : DTS 5.1 @ 1509 kbps - Original
Language : English
Default : No
Forced : No
Text #1
ID : 5
Format : UTF-8
Codec ID : S_TEXT/UTF8
Codec ID/Info : UTF-8 Plain Text
Title : Full
Language : Russian
Default : No
Forced : No
Text #2
ID : 6
Format : UTF-8
Codec ID : S_TEXT/UTF8
Codec ID/Info : UTF-8 Plain Text
Title : Full
Language : Ukrainian
Default : No
Forced : No
Text #3
ID : 7
Format : UTF-8
Codec ID : S_TEXT/UTF8
Codec ID/Info : UTF-8 Plain Text
Title : Full
Language : English
Default : No
Forced : No
Menu
00:00:00.000 : :Chapter 01
00:03:10.815 : :Chapter 03
00:05:14.313 : :Chapter 05
00:08:49.362 : :Chapter 07
00:13:02.239 : :Chapter 09
00:17:36.305 : :Chapter 11
00:19:19.408 : :Chapter 13
00:22:30.348 : :Chapter 15
00:26:48.690 : :Chapter 17
00:29:00.155 : :Chapter 19
00:30:59.691 : :Chapter 21
00:33:46.566 : :Chapter 23
00:36:34.191 : :Chapter 25
00:39:20.232 : :Chapter 27
00:41:32.656 : :Chapter 29
00:45:05.119 : :Chapter 31
00:47:23.090 : :Chapter 33
00:49:58.161 : :Chapter 35
00:52:05.455 : :Chapter 37
00:55:38.918 : :Chapter 39
00:58:10.904 : :Chapter 41
01:02:11.394 : :Chapter 43
01:04:38.082 : :Chapter 45
01:07:03.936 : :Chapter 47
01:09:18.195 : :Chapter 49
01:10:21.342 : :Chapter 51
01:15:17.763 : :Chapter 53
01:17:00.157 : :Chapter 55
01:21:41.855 : :Chapter 57
01:25:24.619 : :Chapter 59
01:29:42.710 : :Chapter 61
01:32:27.959 : :Chapter 63
01:41:10.981 : :Chapter 64
Download / Скачать

Хотите скачать бесплатно? Зарегистрируйтесь на сайте (ссылка на регистрацию). Pirat.ca - самый быстрый торрент трекер в рунете!

Как скачивать  ·   Что такое торрент  ·   Рейтинг и ограничения

Alex-dix

Флибустьер

Пост 21-Сен-2014 21:12 (спустя 1 месяц 3 дня)

[Q] 

Спасибо! покажу ребенку! Спасибо!!!
[Профиль]  [ЛС] 

Drunk Satellite

Лоцман

Пост 26-Дек-2014 19:46 (спустя 3 месяца 4 дня)

[Q] 

С первой серией - никакого сравнения. Сняли какую-то заумную тягомотину с элементами пафосности какой-то. Смотрел с детьми. Целый час выдержали. Всё ждали - ну вот, сейчас может быть начнется то веселье, что было в "Рио". Нет, ничего не началось...
Хотя качество, конечно на высоте. Такая графика...
Первой серии - 5 баллов из пяти. Фильму 2014 года - тройка с минусом.
[Профиль]  [ЛС] 

urik

Морской Волк

Пост 05-Фев-2015 19:31 (спустя 1 месяц 9 дней)

[Q] 

А по мне даже прикольнинько Спасибо!!!
[Профиль]  [ЛС] 

alex denver71

Флибустьер

Пост 13-Янв-2016 20:19 (спустя 11 месяцев 8 дней)

[Q] 

Автору респект!!! Рио 2-замечательный мультфильм!!!
[Профиль]  [ЛС] 
Показать сообщения:    
Ответить на тему

Текущее время: Сегодня 22:35

Часовой пояс: GMT + 4



Вы не можете начинать темы
Вы не можете отвечать на сообщения
Вы не можете редактировать свои сообщения
Вы не можете удалять свои сообщения
Вы не можете голосовать в опросах
Вы не можете прикреплять файлы к сообщениям
Вы не можете скачивать файлы

▼ Вниз