ML
     
  Уважаемый Гость!
Вы можете поддержать проект и зарегистрироваться у наших партнеров - онлайн-стратегия MyLands. При регистрации в игре Вы получите код, который сможете активировать после регистрации на pirat.ca и получить 1000 дублонов.

Ваш код:
2932e5898d0a27592397f70b82a5834d1e70ea19
 
     

Барби и потайная дверь / Barbie and the Secret Door (КаренДжи Ллойд / Karen J Lloyd) [2014 г., мультфильм, BDRip] Dub [Лицензия]

Ответить на тему
 
Автор
Сообщение

Пост 14-Сен-2014 11:43

[Q] 

ara1205

-Барби и потайная дверь / Barbie and the Secret Door-- Производство: США
Год выпуска: 2014 г.
Жанр: мультфильм
Продолжительность: 01:20:51
Дата выхода DVD: 11 сентября 2014
Дата выхода Blu-Ray: 11 сентября 2014
Перевод: Профессиональный (полное дублирование) [Лицензия]-Режиссер: КаренДжи Ллойд / Karen J Lloyd-Описание: В этом мультфильме Барби предстанет в образе принцессы Алексы, которой больше нравится читать книги, чем выполнять королевские обязанности и ритуалы. Однажды Алекса находит тайную дверь в своей королевском саду, эта дверь оказывается копией той, про которую читала принцесса. Принцесса Алекса открывает дверь и попадает в волшебный мир, наполненный сказочными созданиями. В этом мире принцесса встречает Роми и Нори — русалку и принцессу, которые рассказывают ей об испорченной юной правительнице этого мира, старающейся похитить и забрать всю магию.- -Качество видео: BDRip
Контейнер: AVI
Видео кодек: XviD
Аудио кодек: AC3
Видео: 720x400 (1.80:1), 23.976 fps, XviD build 65 ~2119 kbps avg, 0.31 bit/pixel
Аудио: 48 kHz, AC3 Dolby Digital, 3/2 (L,C,R,l,r) + LFE ch, ~448 kbps
Cубтитры: отсутствуют-
Общее
Полное имя : C:\Users\Ромик\Videos\Barbie and the Secret Door (1.46).avi
Формат : AVI
Формат/Информация : Audio Video Interleave
Размер файла : 1,46 Гбайт
Продолжительность : 1 ч. 20 м.
Общий поток : 2577 Кбит/сек
Программа кодирования : VirtualDubMod 1.5.10.3 | www.virtualdub-fr.org || (build 2550/release)
Библиотека кодирования : VirtualDubMod build 2550/release
Видео
Идентификатор : 0
Формат : MPEG-4 Visual
Профиль формата : Advanced [email protected]
Параметр BVOP формата : 2
Параметр QPel формата : Нет
Параметр GMC формата : Без точки перехода
Параметр матрицы формата : Выборочная
Идентификатор кодека : XVID
Идентификатор кодека/Подсказка : XviD
Продолжительность : 1 ч. 20 м.
Битрейт : 2119 Кбит/сек
Ширина : 720 пикселей
Высота : 400 пикселей
Соотношение сторон : 16:9
Частота кадров : 23,976 кадра/сек
Цветовое пространство : YUV
Субдискретизация насыщенности : 4:2:0
Битовая глубина : 8 бит
Тип развёртки : Прогрессивная
Метод сжатия : С потерями
Бит/(Пиксели*Кадры) : 0.307
Размер потока : 1,20 Гбайт (82%)
Библиотека кодирования : XviD 65
Аудио
Идентификатор : 1
Формат : AC-3
Формат/Информация : Audio Coding 3
Расширение режима : CM (complete main)
Параметр Endianness формата : Big
Идентификатор кодека : 2000
Продолжительность : 1 ч. 20 м.
Вид битрейта : Постоянный
Битрейт : 448 Кбит/сек
Каналы : 6 каналов
Расположение каналов : Front: L C R, Side: L R, LFE
Частота : 48,0 КГц
Битовая глубина : 16 бит
Метод сжатия : С потерями
Размер потока : 259 Мбайт (17%)
Выравнивание : Разделение по промежуткам
Продолжительность промежутка : 42 мс. (1,00 видеокадр)
Время предзагрузки промежутка : 500 мс.
-
-
-
Download / Скачать

Хотите скачать бесплатно? Зарегистрируйтесь на сайте (ссылка на регистрацию). Pirat.ca - самый быстрый торрент трекер в рунете!

Как скачивать  ·   Что такое торрент  ·   Рейтинг и ограничения

medved218

Корсар

Пост 14-Сен-2014 11:57 (спустя 13 минут)

[Q] 

падшие женщины bu
[Профиль]  [ЛС] 

anatolyul

Морской Волк

Пост 14-Сен-2014 15:21 (спустя 3 часа)

[Q] 

очередной глупый мультик, я не понимаю как это смотреть,
но моя дочь "пищит от удовольствия"..
скачал, смотрим.... Раздающему респект!
[Профиль]  [ЛС] 

Сфинксоман

Боцман

Пост 14-Сен-2014 15:42 (спустя 21 минута)

[Q] 

Спасибо Спасибо!!! Уже сбилась со счёта сколько их,но дети в восторге!Ненавязчивые мульты и милые.
[Профиль]  [ЛС] 

Танюха10988

Гроза морей

Пост 14-Сен-2014 20:03 (спустя 4 часа)

[Q] 

Спасибо!!!
[Профиль]  [ЛС] 

ГИППАРРД

Морской Волк

2

Пост 15-Сен-2014 19:34 (спустя 23 часа)

[Q] 

Озеров, Курганов, Бондарёв, Струков рулят!!!!!
[Профиль]  [ЛС] 

woger68

Корсар

Пост 15-Сен-2014 22:06 (спустя 2 часа 32 минуты)

[Q] 

Надо русскую Барбу! Раздающему респект!
[Профиль]  [ЛС] 

freedom132435

Штурман

Пост 17-Сен-2014 22:28 (спустя 2 дня)

[Q] 

Раздающему респект! спасибо
[Профиль]  [ЛС] 

Jek@

Легенда

Пост 18-Сен-2014 14:03 (спустя 15 часов)

[Q] 

Спасибо!!! .
[Профиль]  [ЛС] 

zvyagin_da

Пост 20-Сен-2014 01:57 (спустя 1 день 11 часов)

[Q] 

http://pirat.ca/images/smiles/04.png
[Профиль]  [ЛС] 

Пост 30-Окт-2014 22:19 (спустя 1 месяц 10 дней)

Топик был перенесен из форума Новинки (HD|DVD|BD| TV|SAT|PDTV| - Rips) в форум Зарубежные полнометражные мультфильмы
kugesan
 
Показать сообщения:    
Ответить на тему

Текущее время: Сегодня 08:03

Часовой пояс: GMT + 4



Вы не можете начинать темы
Вы не можете отвечать на сообщения
Вы не можете редактировать свои сообщения
Вы не можете удалять свои сообщения
Вы не можете голосовать в опросах
Вы не можете прикреплять файлы к сообщениям
Вы не можете скачивать файлы

▼ Вниз