ML
     
  Уважаемый Гость!
Вы можете поддержать проект и зарегистрироваться у наших партнеров - онлайн-стратегия MyLands. При регистрации в игре Вы получите код, который сможете активировать после регистрации на pirat.ca и получить 1000 дублонов.

Ваш код:
11f49771fdf057c9d51610e4a0925c3b46ddb655
 
     

Том и Джерри: Потерянный дракон / Tom & Jerry: The Lost Dragon (Тони Червоне / Tony Cervone) [2014 г., мультфильм, комедия, DVDRip] MVO [Лицензия]

Ответить на тему
 
Автор
Сообщение

Пост 14-Сен-2014 13:29

[Q] 

ara1205

-Том и Джерри: Потерянный дракон / Tom & Jerry: The Lost Dragon-- Производство: США
Год выпуска: 2014 г.
Жанр: мультфильм, комедия
Продолжительность: 00:54:22
Дата выхода DVD: 18 сентября 2014
Перевод: Профессиональный (многоголосый, закадровый) [Лицензия]

Режиссер: Тони Червоне / Tony Cervone-Роли озвучивали: Келли Стейблз, Викки Льюис, Джим Каммингс, Лорейн Ньюмен, Уэйн Найт-Описание: Всеми любимая парочка — кот и мышь -вернулись в этой волшебной сказке! А вместе с ними — и песни, веселье и магия. Приключение наших героев начинается с того, что они находят странное яйцо, которое было украдено у огромного огнедышащего дракона! Вскоре из яйца вылупляется малыш Паффи и решает, что Том — это его мама. Настоящая мама-дракониха хочет вернуть своего драконёнка, но не она одна — за малышом охотится ведьма Дризельда!
С помощью волшебных союзников и зверей Тому и Джерри предстоит остановить ведьму и вернуть детёныша его маме. Вас ждёт магия, сражения и, конечно же, море веселья! Смогут ли друзья помочь героям этой сказки, будет ли у неё счастливый финал? Отправьтесь в это увлекательное путешествие всей семьёй и сами узнаете!- -Качество видео: DVDRip
Контейнер: AVI
Видео кодек: XviD
Аудио кодек: AC3
Видео: 720x400, 25,000 fps, 1714 kbps avg, 0.238 bit/pixel
Аудио: 48 kHz, AC3 Dolby Digital, 2 ch, 192 kbps
Cубтитры: отсутствуют-
Общее
Полное имя : C:\Users\Ромик\Pictures\Том и Джерри Потерянный дракон\Tom.i.Djerri.Poteryannyi.Drakon.2014.P.DVDRip.[pirat.ca].avi
Формат : AVI
Формат/Информация : Audio Video Interleave
Размер файла : 745 Мбайт
Продолжительность : 54 м.
Общий поток : 1915 Кбит/сек
Программа кодирования : VirtualDubModRus 1.5.10.2 (build 2542/release)
Библиотека кодирования : VirtualDubMod build 2542/release
Видео
Идентификатор : 0
Формат : MPEG-4 Visual
Профиль формата : Advanced [email protected]
Параметр BVOP формата : 1
Параметр QPel формата : Нет
Параметр GMC формата : Без точки перехода
Параметр матрицы формата : Выборочная
Идентификатор кодека : XVID
Идентификатор кодека/Подсказка : XviD
Продолжительность : 54 м.
Битрейт : 1714 Кбит/сек
Ширина : 720 пикселей
Высота : 400 пикселей
Соотношение сторон : 16:9
Частота кадров : 25,000 кадров/сек
Цветовое пространство : YUV
Субдискретизация насыщенности : 4:2:0
Битовая глубина : 8 бит
Тип развёртки : Прогрессивная
Метод сжатия : С потерями
Бит/(Пиксели*Кадры) : 0.238
Размер потока : 666 Мбайт (89%)
Библиотека кодирования : XviD 73
Аудио
Идентификатор : 1
Формат : AC-3
Формат/Информация : Audio Coding 3
Расширение режима : CM (complete main)
Параметр Endianness формата : Big
Идентификатор кодека : 2000
Продолжительность : 54 м.
Вид битрейта : Постоянный
Битрейт : 192 Кбит/сек
Каналы : 2 канала
Расположение каналов : Front: L R
Частота : 48,0 КГц
Битовая глубина : 16 бит
Метод сжатия : С потерями
Размер потока : 74,7 Мбайт (10%)
Выравнивание : Разделение по промежуткам
Продолжительность промежутка : 40 мс. (1,00 видеокадр)
Время предзагрузки промежутка : 500 мс.
-
-
-
Download / Скачать

Хотите скачать бесплатно? Зарегистрируйтесь на сайте (ссылка на регистрацию). Pirat.ca - самый быстрый торрент трекер в рунете!

Как скачивать  ·   Что такое торрент  ·   Рейтинг и ограничения

Alexlogin

Гроза морей

105

Пост 14-Сен-2014 14:05 (спустя 36 минут)

[Q] 

Спасибо доча будет рада
[Профиль]  [ЛС] 

ANDOKU

Шкипер

Пост 14-Сен-2014 14:19 (спустя 13 минут)

[Q] 

Лови бочку
[Профиль]  [ЛС] 

srg078rus

Корсар

97

Пост 14-Сен-2014 15:44 (спустя 1 час 25 минут)

[Q] 

Спасибо))

_________________
[Профиль]  [ЛС] 

HOTTABYCHru_32_Aртём

Канонир

Пост 14-Сен-2014 16:50 (спустя 1 час 5 минут)

[Q] 

время можно убить
[Профиль]  [ЛС] 

Танюха10988

Гроза морей

Пост 14-Сен-2014 20:12 (спустя 3 часа)

[Q] 

Спасибо, люблю этот мультик.
[Профиль]  [ЛС] 

Agat

Корсар

Пост 15-Сен-2014 10:33 (спустя 14 часов)

[Q] 

Ерунда, Лучше старые пересмотреть!!! На любителя

_________________
Не для Нас, команда - Вольно, отдохнём, когда раздавят!!!
[Профиль]  [ЛС] 

KoNiaL_KCC

Гроза морей

Пост 16-Сен-2014 10:38 (спустя 1 день)

[Q] 

понравилось Раздающему респект!
[Профиль]  [ЛС] 

Jek@

Легенда

Пост 18-Сен-2014 14:01 (спустя 2 дня 3 часа)

[Q] 

Спасибо!!! .
[Профиль]  [ЛС] 

bolin

Флибустьер

Пост 19-Сен-2014 11:25 (спустя 21 час)

[Q] 

Забираю малышам!!! Лови бочку
[Профиль]  [ЛС] 

zvyagin_da

Пост 20-Сен-2014 01:54 (спустя 14 часов)

[Q] 

Спасибо, люблю этот мультик.
[Профиль]  [ЛС] 

woger68

Корсар

Пост 20-Сен-2014 16:24 (спустя 14 часов)

[Q] 

Спасибо за труд.
А мультик- как и все! На любителя
[Профиль]  [ЛС] 

MAZAY_T

Лоцман

Пост 20-Сен-2014 21:20 (спустя 4 часа)

[Q] 

Вспомним детство Одобрямс!
[Профиль]  [ЛС] 

Alex-dix

Флибустьер

Пост 21-Сен-2014 21:27 (спустя 1 день)

[Q] 

Забираю Спасибо! Лови бочку
[Профиль]  [ЛС] 

terrex

Пост 22-Сен-2014 10:35 (спустя 13 часов)

[Q] 

Спасибо, надеюсь ребенок будет доволен )
[Профиль]  [ЛС] 

Пост 30-Окт-2014 22:18 (спустя 1 месяц 8 дней)

Топик был перенесен из форума Новинки (HD|DVD|BD| TV|SAT|PDTV| - Rips) в форум Зарубежные полнометражные мультфильмы
kugesan
 

viktorsg

Шкипер

Пост 02-Апр-2016 11:19 (спустя 1 год 6 месяцев)

[Q] 

Спасибо, буду смотреть с малым ) Спасибо!!!
[Профиль]  [ЛС] 
Показать сообщения:    
Ответить на тему

Текущее время: Сегодня 03:08

Часовой пояс: GMT + 4



Вы не можете начинать темы
Вы не можете отвечать на сообщения
Вы не можете редактировать свои сообщения
Вы не можете удалять свои сообщения
Вы не можете голосовать в опросах
Вы не можете прикреплять файлы к сообщениям
Вы не можете скачивать файлы

▼ Вниз