ML
     
  Уважаемый Гость!
Вы можете поддержать проект и зарегистрироваться у наших партнеров - онлайн-стратегия MyLands. При регистрации в игре Вы получите код, который сможете активировать после регистрации на pirat.ca и получить 1000 дублонов.

Ваш код:
ba41f7961e0b4717aed6a401d955262223b8f6c4
 
     

Барби и потайная дверь / Barbie and the Secret Door (КаренДжи Ллойд / Karen J Lloyd) [2014 г., мультфильм, HDRip] Dub [Лицензия]

Ответить на тему
 
Автор
Сообщение

Пост 14-Сен-2014 16:32

[Q] 

ara1205

-Барби и потайная дверь / Barbie and the Secret Door-- Производство: США
Год выпуска: 2014 г.
Жанр: мультфильм
Продолжительность: 01:20:51
Дата выхода DVD: 11 сентября 2014
Дата выхода Blu-Ray: 11 сентября 2014
Перевод: Профессиональный (полное дублирование) [Лицензия]-Режиссер: КаренДжи Ллойд / Karen J Lloyd-Описание: В этом мультфильме Барби предстанет в образе принцессы Алексы, которой больше нравится читать книги, чем выполнять королевские обязанности и ритуалы. Однажды Алекса находит тайную дверь в своей королевском саду, эта дверь оказывается копией той, про которую читала принцесса. Принцесса Алекса открывает дверь и попадает в волшебный мир, наполненный сказочными созданиями. В этом мире принцесса встречает Роми и Нори — русалку и принцессу, которые рассказывают ей об испорченной юной правительнице этого мира, старающейся похитить и забрать всю магию.- -Качество видео: HDRip
Контейнер: AVI
Видео кодек: XviD
Аудио кодек: AC3
Видео: 720x400, 23.976 fps, 1085 kbps avg, 0.157 bit/pixel
Аудио: 48 kHz, AC3 Dolby Digital, 2 ch, 192 kbps
Cубтитры: отсутствуют-
Общее
Полное имя : C:\Users\Ромик\Pictures\Барби и потайная дверь\Barbie.and,the.Secret.Door.2014.HDRip.745Mb.avi
Формат : AVI
Формат/Информация : Audio Video Interleave
Размер файла : 744 Мбайт
Продолжительность : 1 ч. 20 м.
Общий поток : 1286 Кбит/сек
Название фильма : Barbie.and,the.Secret.Door.2014.HDRip.745Mb.[pirat.ca]
Программа кодирования : VirtualDubMod 1.5.10.2 (build 2540/release)
Примечание : http://pirat.ca
Видео
Идентификатор : 0
Формат : MPEG-4 Visual
Профиль формата : Advanced [email protected]
Параметр BVOP формата : 2
Параметр QPel формата : Нет
Параметр GMC формата : Без точки перехода
Параметр матрицы формата : Default (MPEG)
Идентификатор кодека : XVID
Идентификатор кодека/Подсказка : XviD
Продолжительность : 1 ч. 20 м.
Битрейт : 1085 Кбит/сек
Ширина : 720 пикселей
Высота : 400 пикселей
Соотношение сторон : 16:9
Частота кадров : 23,976 кадра/сек
Цветовое пространство : YUV
Субдискретизация насыщенности : 4:2:0
Битовая глубина : 8 бит
Тип развёртки : Прогрессивная
Метод сжатия : С потерями
Бит/(Пиксели*Кадры) : 0.157
Размер потока : 627 Мбайт (84%)
Библиотека кодирования : XviD 1.2.0.dev47 (UTC 2006-11-01)
Аудио
Идентификатор : 1
Формат : AC-3
Формат/Информация : Audio Coding 3
Расширение режима : CM (complete main)
Параметр Endianness формата : Big
Идентификатор кодека : 2000
Продолжительность : 1 ч. 20 м.
Вид битрейта : Постоянный
Битрейт : 192 Кбит/сек
Каналы : 2 канала
Расположение каналов : Front: L R
Частота : 48,0 КГц
Битовая глубина : 16 бит
Метод сжатия : С потерями
Размер потока : 111 Мбайт (15%)
Выравнивание : Разделение по промежуткам
Продолжительность промежутка : 42 мс. (1,00 видеокадр)
Время предзагрузки промежутка : 500 мс.
-
-
-
Download / Скачать

Хотите скачать бесплатно? Зарегистрируйтесь на сайте (ссылка на регистрацию). Pirat.ca - самый быстрый торрент трекер в рунете!

Как скачивать  ·   Что такое торрент  ·   Рейтинг и ограничения

Vintorezov REG 39

Легенда

176

Пост 15-Сен-2014 19:32 (спустя 1 день 2 часа)

[Q] 

Хороший мультик Спасибо!!!
[Профиль]  [ЛС] 

Пост 30-Окт-2014 22:21 (спустя 1 месяц 15 дней)

Топик был перенесен из форума Новинки (HD|DVD|BD| TV|SAT|PDTV| - Rips) в форум Зарубежные полнометражные мультфильмы
kugesan
 
Показать сообщения:    
Ответить на тему

Текущее время: Сегодня 14:49

Часовой пояс: GMT + 4



Вы не можете начинать темы
Вы не можете отвечать на сообщения
Вы не можете редактировать свои сообщения
Вы не можете удалять свои сообщения
Вы не можете голосовать в опросах
Вы не можете прикреплять файлы к сообщениям
Вы не можете скачивать файлы

▼ Вниз