ML
     
  Уважаемый Гость!
Вы можете поддержать проект и зарегистрироваться у наших партнеров - онлайн-стратегия MyLands. При регистрации в игре Вы получите код, который сможете активировать после регистрации на pirat.ca и получить 1000 дублонов.

Ваш код:
cc3be08b7507661c03e0a2f582d0da3a659ea55a
 
     

Русалочка: Начало истории Ариэль / The Little Mermaid: Ariel's Beginning (Пегги Холмс / Peggy Holmes) [2008 г., Мультфильм, Фэнтези, Семейный, HDRip] Dub (лицензия)

Ответить на тему
 
Автор
Сообщение

Пост 17-Янв-2012 14:44

[Q] 

Ksandr

Флибустьер

Русалочка: Начало истории Ариэль / The Little Mermaid: Ariel's Beginning
Год выпуска: 2008
Мировая премьера: 26 августа 2008
Дата выхода DVD: 25 сентября 2008
Производство: США
Жанр: Мультфильм, Фэнтези, Семейный
Продолжительность: 01:14:25
Перевод: Профессиональный (полное дублирование) [лицензия]
Субтитры: отсутствуют
Режиссер: Пегги Холмс / Peggy Holmes
В ролях
Джоди Бенсон, Сэмюэл Э. Райт, Джим Каммингс, Салли Филд, Parker Goris, Тара Стронг, Дженнифер Хейл, Грей ДеЛайл, Джефф Беннетт, Кэри Уолгрен
Описание
Представьте далекие времена, задолго до того, как Ариэль познакомилась с Принцем Эриком и вышла на сушу — времена, когда музыка была еще под запретом в подводном королевсте Атлантики. Разрываясь между семейными обязанностями и любовью к музыке, Ариэль должна сделать самый трудный выбор в своей жизни.
Источник/Качество: HDRip
Формат: AVI
Видео кодек: DivX
Аудио кодек: MP3
Видео: 688x384, ~1257 kbps, 25,000 fps
Аудио: 2ch, 128 kbps, 48,0 КГц
Общее
Полное имя : The Little Mermaid Ariel's Beginning[pirat.ca].avi
Формат : AVI
Формат/Информация : Audio Video Interleave
Размер файла : 742 Мбайт
Продолжительность : 1 ч. 14 м.
Общий поток : 1394 Кбит/сек
Программа кодирования : VirtualDubMod 1.5.10.2 (build 2540/release)
Библиотека кодирования : VirtualDubMod build 2540/release
Видео
Идентификатор : 0
Формат : MPEG-4 Visual
Профиль формата : Advanced [email protected]
Параметр BVOP формата : 1
Параметр QPel формата : Нет
Параметр GMC формата : Без точки перехода
Параметр матрицы формата : Выборочная
Идентификатор кодека : DX50
Идентификатор кодека/Подсказка : DivX 5
Продолжительность : 1 ч. 14 м.
Битрейт : 1257 Кбит/сек
Ширина : 688 пикселей
Высота : 384 пикселя
Соотношение сторон : 16:9
Частота кадров : 25,000 кадров/сек
Цветовое пространство : YUV
Субдискретизация насыщенности : 4:2:0
Битовая глубина : 8 бит
Тип развёртки : Прогрессивная
Метод сжатия : С потерями
Бит/(Пиксели*Кадры) : 0.190
Размер потока : 669 Мбайт (90%)
Библиотека кодирования : XviD 64
Аудио
Идентификатор : 1
Формат : MPEG Audio
Версия формата : Version 1
Профиль формата : Layer 3
Режим : Joint stereo
Расширение режима : MS Stereo
Идентификатор кодека : 55
Идентификатор кодека/Подсказка : MP3
Продолжительность : 1 ч. 14 м.
Вид битрейта : Постоянный
Битрейт : 128 Кбит/сек
Каналы : 2 канала
Частота : 48,0 КГц
Метод сжатия : С потерями
Задержка видео : 1 с. 824 мс.
Размер потока : 68,1 Мбайт (9%)
Выравнивание : Разделение по промежуткам
Продолжительность промежутка : 40 мс. (1,00 видеокадр)
Время предзагрузки промежутка : 504 мс.
Релиз подготовлен:
Download / Скачать

Хотите скачать бесплатно? Зарегистрируйтесь на сайте (ссылка на регистрацию). Pirat.ca - самый быстрый торрент трекер в рунете!

Как скачивать  ·   Что такое торрент  ·   Рейтинг и ограничения

Пост 17-Янв-2012 22:21 (спустя 7 часов)

Топик был перенесен из форума Мультипликация в форум Зарубежные полнометражные мультфильмы

CaptRom
 

Воффка

Морской Волк

Пост 21-Фев-2012 19:54 (спустя 1 месяц 4 дня)

[Q] 

Спасибо

_________________
-= Водка, шлюхи, Death Metal!!!=-
[Профиль]  [ЛС] 

CHARLI2236

1097

Пост 28-Окт-2012 22:15 (спустя 8 месяцев 7 дней)

[Q] 

спасибо

_________________
[Профиль]  [ЛС] 

manu

Пост 14-Ноя-2013 19:15 (спустя 1 год)

[Q] 

Постою на раздаче. Раздавать будем или как? Вопросы есть?… пиши в ЛС
[Профиль]  [ЛС] 
Показать сообщения:    
Ответить на тему

Текущее время: Сегодня 05:06

Часовой пояс: GMT + 4



Вы не можете начинать темы
Вы не можете отвечать на сообщения
Вы не можете редактировать свои сообщения
Вы не можете удалять свои сообщения
Вы не можете голосовать в опросах
Вы не можете прикреплять файлы к сообщениям
Вы не можете скачивать файлы

▼ Вниз