ML
     
  Уважаемый Гость!
Вы можете поддержать проект и зарегистрироваться у наших партнеров - онлайн-стратегия MyLands. При регистрации в игре Вы получите код, который сможете активировать после регистрации на pirat.ca и получить 1000 дублонов.

Ваш код:
a01a592a88af5f9996a6d1baec61b18a1769954d
 
     

Астерикс и викинги / Astérix et les Vikings (Стефан Фьелдмарк, Джеспер Мюллер / Stefan Fjeldmark,) [2006 г., Мультфильм, Фэнтези, Комедия, Приключения, Семейный, HDRip] Dub (лицензия)

Ответить на тему
 
Автор
Сообщение

Пост 17-Янв-2012 15:03

[Q] 

Ksandr

Флибустьер

Астерикс и викинги / Astérix et les Vikings
Год выпуска: 2006
Мировая премьера: 5 апреля 2006
Российская премьера: 24 августа 2006
Дата выхода DVD: 14 апреля 2009
Производство: Дания, Франция
Жанр: Мультфильм, Фэнтези, Комедия, Приключения, Семейный
Продолжительность: 01:15:05
Перевод: Профессиональный (полное дублирование) [лицензия]
Субтитры: отсутствуют
Режиссер: Стефан Фьелдмарк, Джеспер Мюллер / Stefan Fjeldmark,
В ролях
Роже Карель, Лоран Дойч, Сара Форестье, Жак Франц, Пьер Пальмад, Пьер Черния, Бернар Алан, Марк Альфос, Жуль Азем, Патрик Борг
Описание
Астерикс и его друг Обеликс впервые в своей жизни должны встретиться с викингами. Бесстрашные воины из северной страны выкрали племянника вождя галлов, юного Задиру. Миссия чрезвычайно опасна, так как викинги слывут отчаянными и безжалостными воинами…
Источник/Качество: HDRip
Формат: AVI
Видео кодек: XviD
Аудио кодек: MP3
Видео: 688x368, ~1253 kbps, 25,000 fps
Аудио: 2ch, 128 kbps, 48,0 КГц
Общее
Полное имя : Astérix et les Vikings[pirat.ca].avi
Формат : AVI
Формат/Информация : Audio Video Interleave
Размер файла : 747 Мбайт
Продолжительность : 1 ч. 15 м.
Общий поток : 1391 Кбит/сек
Программа кодирования : VirtualDubMod 1.5.10.2 (build 2540/release)
Библиотека кодирования : VirtualDubMod build 2540/release
Видео
Идентификатор : 0
Формат : MPEG-4 Visual
Профиль формата : Advanced [email protected]
Параметр BVOP формата : 1
Параметр QPel формата : Нет
Параметр GMC формата : Без точки перехода
Параметр матрицы формата : Default (MPEG)
Идентификатор кодека : XVID
Идентификатор кодека/Подсказка : XviD
Продолжительность : 1 ч. 15 м.
Битрейт : 1253 Кбит/сек
Ширина : 688 пикселей
Высота : 368 пикселей
Соотношение сторон : 1,870
Частота кадров : 25,000 кадров/сек
Цветовое пространство : YUV
Субдискретизация насыщенности : 4:2:0
Битовая глубина : 8 бит
Тип развёртки : Прогрессивная
Метод сжатия : С потерями
Бит/(Пиксели*Кадры) : 0.198
Размер потока : 673 Мбайт (90%)
Библиотека кодирования : XviD 1.2.0.dev47 (UTC 2006-11-01)
Аудио
Идентификатор : 1
Формат : MPEG Audio
Версия формата : Version 1
Профиль формата : Layer 3
Идентификатор кодека : 55
Идентификатор кодека/Подсказка : MP3
Продолжительность : 1 ч. 15 м.
Вид битрейта : Постоянный
Битрейт : 128 Кбит/сек
Каналы : 2 канала
Частота : 48,0 КГц
Метод сжатия : С потерями
Размер потока : 68,7 Мбайт (9%)
Выравнивание : Соединение по промежуткам
Продолжительность промежутка : 40 мс. (1,00 видеокадр)
Время предзагрузки промежутка : 504 мс.
Библиотека кодирования : LAME3.97
Настройки программы : -m s -V 4 -q 2 -lowpass 17 -b 128
Релиз подготовлен:
Download / Скачать

Хотите скачать бесплатно? Зарегистрируйтесь на сайте (ссылка на регистрацию). Pirat.ca - самый быстрый торрент трекер в рунете!

Как скачивать  ·   Что такое торрент  ·   Рейтинг и ограничения

Пост 17-Янв-2012 22:21 (спустя 7 часов)

Топик был перенесен из форума Мультипликация в форум Зарубежные полнометражные мультфильмы

CaptRom
 

OlegSh

Морской Волк

Пост 02-Май-2012 10:23 (спустя 3 месяца 15 дней)

[Q] 

смотрим
[Профиль]  [ЛС] 

CHARLI2236

1097

Пост 12-Мар-2014 23:16 (спустя 1 год 10 месяцев)

[Q] 

подключусь AntiZip 05

_________________
[Профиль]  [ЛС] 
Показать сообщения:    
Ответить на тему

Текущее время: Сегодня 09:50

Часовой пояс: GMT + 4



Вы не можете начинать темы
Вы не можете отвечать на сообщения
Вы не можете редактировать свои сообщения
Вы не можете удалять свои сообщения
Вы не можете голосовать в опросах
Вы не можете прикреплять файлы к сообщениям
Вы не можете скачивать файлы

▼ Вниз