ML
     
  Уважаемый Гость!
Вы можете поддержать проект и зарегистрироваться у наших партнеров - онлайн-стратегия MyLands. При регистрации в игре Вы получите код, который сможете активировать после регистрации на pirat.ca и получить 1000 дублонов.

Ваш код:
c3360d664ceb84802c84b88ed062a5d134e2ba97
 
     

Труп невесты / Corpse Bride (Тим Бёртон, Майк Джонсон / Tim Burton, Mike Johnson) [2005 г., Мультфильм, Фэнтези, Мелодрама, Музыка, HDRip] Dub (лиензия)

Ответить на тему
 
Автор
Сообщение

Пост 17-Янв-2012 15:15

[Q] 

Ksandr

Флибустьер

Труп невесты / Corpse Bride
Год выпуска: 2005
Мировая премьера: 7 сентября 2005
Российская премьера: 26 января 2006
Дата выхода DVD: 17 марта 2011
Производство: США, Великобритания
Жанр: Мультфильм, Фэнтези, Мелодрама, Музыка
Продолжительность: 01:17:09
Перевод: Профессиональный (полное дублирование) [лиензия]
Субтитры: отсутствуют
Режиссер: Тим Бёртон, Майк Джонсон / Tim Burton, Mike Johnson
В ролях
Джонни Депп, Хелена Бонем Картер, Эмили Уотсон, Трейси Уллмен, Пол Уайтхаус, Джоанна Ламли, Альберт Финни, Ричард Э. Грант, Кристофер Ли, Майкл Гоф
Описание
Действие развивается в европейской деревушке XIX века. Главного героя — молодого человека Виктора — силы тьмы утаскивают в преисподнюю и женят там на таинственном Трупе Невесты, в то время как его настоящая невеста Виктория ожидает своего жениха в мире живых. Несмотря на то, что проживание в Царстве мертвых оказывается много интересней, чем его привычный викторианский образ жизни, Виктор понимает, что свою единственную любовь он не променяет ни на что ни в одном из альтернативных миров…
Источник/Качество: HDRip
Формат: AVI
Видео кодек: XviD
Аудио кодек: MP3
Видео: 688x384, ~1211 kbps, 23,976 fps
Аудио: 2ch, 128 kbps, 48,0 КГц
Общее
Полное имя : Corpse Bride[pirat.ca].avi
Формат : AVI
Формат/Информация : Audio Video Interleave
Размер файла : 744 Мбайт
Продолжительность : 1 ч. 17 м.
Общий поток : 1349 Кбит/сек
Программа кодирования : VirtualDubMod 1.5.10.2 (build 2540/release)
Библиотека кодирования : VirtualDubMod build 2540/release
Видео
Идентификатор : 0
Формат : MPEG-4 Visual
Профиль формата : Advanced [email protected]
Параметр BVOP формата : 1
Параметр QPel формата : Нет
Параметр GMC формата : Без точки перехода
Параметр матрицы формата : Default (MPEG)
Идентификатор кодека : XVID
Идентификатор кодека/Подсказка : XviD
Продолжительность : 1 ч. 17 м.
Битрейт : 1211 Кбит/сек
Ширина : 688 пикселей
Высота : 384 пикселя
Соотношение сторон : 16:9
Частота кадров : 23,976 кадра/сек
Цветовое пространство : YUV
Субдискретизация насыщенности : 4:2:0
Битовая глубина : 8 бит
Тип развёртки : Прогрессивная
Метод сжатия : С потерями
Бит/(Пиксели*Кадры) : 0.191
Размер потока : 668 Мбайт (90%)
Библиотека кодирования : XviD 1.1.2 (UTC 2006-11-01)
Аудио
Идентификатор : 1
Формат : MPEG Audio
Версия формата : Version 1
Профиль формата : Layer 3
Идентификатор кодека : 55
Идентификатор кодека/Подсказка : MP3
Продолжительность : 1 ч. 17 м.
Вид битрейта : Постоянный
Битрейт : 128 Кбит/сек
Каналы : 2 канала
Частота : 48,0 КГц
Метод сжатия : С потерями
Размер потока : 70,6 Мбайт (9%)
Выравнивание : Соединение по промежуткам
Продолжительность промежутка : 42 мс. (1,00 видеокадр)
Время предзагрузки промежутка : 504 мс.
Библиотека кодирования : LAME3.97
Настройки программы : -m s -V 4 -q 2 -lowpass 17 -b 128
Релиз подготовлен:
Download / Скачать

Хотите скачать бесплатно? Зарегистрируйтесь на сайте (ссылка на регистрацию). Pirat.ca - самый быстрый торрент трекер в рунете!

Как скачивать  ·   Что такое торрент  ·   Рейтинг и ограничения

Пост 17-Янв-2012 22:18 (спустя 7 часов)

Топик был перенесен из форума Мультипликация в форум Зарубежные полнометражные мультфильмы

CaptRom
 

manu

Пост 14-Ноя-2013 19:15 (спустя 1 год 9 месяцев)

[Q] 

Постою на раздаче. Одобрямс! Пиратка рулез!!!
[Профиль]  [ЛС] 

Raspberry

Морской Волк

193

Пост 30-Янв-2014 14:54 (спустя 2 месяца 15 дней)

[Q] 

Бертона в массы! Одобрямс! Лови бочку

_________________
[Профиль]  [ЛС] 
Показать сообщения:    
Ответить на тему

Текущее время: Сегодня 10:05

Часовой пояс: GMT + 4



Вы не можете начинать темы
Вы не можете отвечать на сообщения
Вы не можете редактировать свои сообщения
Вы не можете удалять свои сообщения
Вы не можете голосовать в опросах
Вы не можете прикреплять файлы к сообщениям
Вы не можете скачивать файлы

▼ Вниз