ML
     
  Уважаемый Гость!
Вы можете поддержать проект и зарегистрироваться у наших партнеров - онлайн-стратегия MyLands. При регистрации в игре Вы получите код, который сможете активировать после регистрации на pirat.ca и получить 1000 дублонов.

Ваш код:
c89b4b6523eaac3173e9a9c062ac1a19db575961
 
     

Дети дождя / Les Enfants de la pluie (Филипп Леклерк / Philippe Leclerc) [2003 г., Ммультфильм, Фэнтези, Приключения, DVDRip] Dub (лицензия)

Ответить на тему
 
Автор
Сообщение

Пост 17-Янв-2012 15:35

[Q] 

Ksandr

Флибустьер

Дети дождя / Les Enfants de la pluie
Год выпуска: 2003
Мировая премьера: 30 января 2003
Российская премьера: 21 августа 2003
Дата выхода DVD: 30 октября 2008
Производство: Франция, Корея Южная
Жанр: Ммультфильм, Фэнтези, Приключения
Продолжительность: 01:22:09
Перевод: Профессиональный (полное дублирование) [лицензия]
Субтитры: отсутствуют
Режиссер: Филипп Леклерк / Philippe Leclerc
В ролях
Frédéric Cerdal, Паскаль Шмен, Mélody Dubos, Fily Keita, Дэвид Крюгер, Yann Lemadic, Гилберт Леви, Бенжамин Паскаль, Charles Pestel, Marjolaine Poulain
Описание
В этом мире два народа, пиросы и гидросы — смертельные враги. Жизнь пиросов, отважных воинов, зависит от огня. В сезон дождей на них обрушиваются две опасности: вода с небес, которая сжигает их, да еще драконы, нападающие на людей. И в этом, конечно, виноваты гидросы! Вражда народов длится бесконечно. И вот однажды, когда опять вернулось солнце, юный пирос Скан отправился с отрядом в Амфиболь в надежде, что раскроет великую тайну…
Источник/Качество: DVDRip
Формат: AVI
Видео кодек: DivX
Аудио кодек: MP3
Видео: 512x288, ~964 kbps, 25,000 fps
Аудио: 2ch, 105 kbps, 48,0 КГц
Общее
Полное имя : Les Enfants de la pluie[pirat.ca].avi
Формат : AVI
Формат/Информация : Audio Video Interleave
Размер файла : 636 Мбайт
Продолжительность : 1 ч. 22 м.
Режим общего битрейта : Переменный
Общий поток : 1082 Кбит/сек
Видео
Идентификатор : 0
Формат : MPEG-4 Visual
Идентификатор кодека : DIV3
Идентификатор кодека/Подсказка : DivX 3 Low
Продолжительность : 1 ч. 22 м.
Битрейт : 964 Кбит/сек
Ширина : 512 пикселей
Высота : 288 пикселей
Соотношение сторон : 16:9
Частота кадров : 25,000 кадров/сек
Цветовое пространство : YUV
Субдискретизация насыщенности : 4:2:0
Битовая глубина : 8 бит
Метод сжатия : С потерями
Бит/(Пиксели*Кадры) : 0.262
Размер потока : 567 Мбайт (89%)
Аудио
Идентификатор : 1
Формат : MPEG Audio
Версия формата : Version 1
Профиль формата : Layer 3
Режим : Joint stereo
Расширение режима : MS Stereo
Идентификатор кодека : 55
Идентификатор кодека/Подсказка : MP3
Продолжительность : 1 ч. 22 м.
Вид битрейта : Переменный
Битрейт : 105 Кбит/сек
Каналы : 2 канала
Частота : 48,0 КГц
Метод сжатия : С потерями
Задержка видео : 21 мс.
Размер потока : 61,8 Мбайт (10%)
Выравнивание : Соединение по промежуткам
Продолжительность промежутка : 24 мс. (0,60 видеокадр)
Время предзагрузки промежутка : 253 мс.
Download / Скачать

Хотите скачать бесплатно? Зарегистрируйтесь на сайте (ссылка на регистрацию). Pirat.ca - самый быстрый торрент трекер в рунете!

Как скачивать  ·   Что такое торрент  ·   Рейтинг и ограничения

Пост 17-Янв-2012 22:18 (спустя 6 часов)

Топик был перенесен из форума Мультипликация в форум Зарубежные полнометражные мультфильмы

CaptRom
 

Wolf111

57134

Пост 12-Янв-2013 18:31 (спустя 11 месяцев 26 дней)

[Q] 

Помогу с раздачей
[Профиль]  [ЛС] 
Показать сообщения:    
Ответить на тему

Текущее время: Сегодня 22:30

Часовой пояс: GMT + 4



Вы не можете начинать темы
Вы не можете отвечать на сообщения
Вы не можете редактировать свои сообщения
Вы не можете удалять свои сообщения
Вы не можете голосовать в опросах
Вы не можете прикреплять файлы к сообщениям
Вы не можете скачивать файлы

▼ Вниз