ML
     
  Уважаемый Гость!
Вы можете поддержать проект и зарегистрироваться у наших партнеров - онлайн-стратегия MyLands. При регистрации в игре Вы получите код, который сможете активировать после регистрации на pirat.ca и получить 1000 дублонов.

Ваш код:
ba41f7961e0b4717aed6a401d955262223b8f6c4
 
     

Кунг-фу Панда 2 / Kung Fu Panda 2 (Дженнифер Ю / Jennifer S) [2011 г., мультфильм, боевик, комедия, приключения, семейный, HDRip]

Ответить на тему
 
Автор
Сообщение

Пост 27-Окт-2011 22:08

[Q] 

Moln1a

Корсар

Кунг-фу Панда 2 / Kung Fu Panda 2
Год выпуска: 2011
Страна: США
Жанр: мультфильм, боевик, комедия, приключения, семейный
Продолжительность: 01:30:23
Перевод: Профессиональный (полное дублирование)[лицензия]
Режиссер: Дженнифер Ю / Jennifer S
В ролях: Анджелина Джоли, Гари Олдман, Сет Роген,
Жан-Клод Ван Дамм, Джек Блэк, Джеки Чан, Дастин Хоффман,
Дэвид Кросс, Люси Лью, Мишель Йео
Описание: Панда По наконец-то исполнит свою мечту, станет Воином Дракона
и со своими друзьями и мастерами кунг-фу Неистовой Пятеркой
защитит Великую Долину от страшного злодея и его легиона
Сэмпл
Качество: HDRip
Формат: AVI
Видео кодек: XviD
Аудио кодек: AC3
Видео: 720x304 (2.37:1), 23.976 fps, XviD MPEG-4 ~1710 kbps avg, 0.33 bit/pixe
Аудио: 48 kHz, AC3 Dolby Digital, 3/2 (L,C,R,l,r) + LFE ch, ~448.00 kbps avg
Формат : AVI
Формат/Информация : Audio Video Interleave
Размер файла : 1,37 Гбайт
Продолжительность : 1 ч. 30 м.
Общий поток : 2168 Кбит/сек
Программа кодирования : VirtualDubMod 1.5.10.3 | www.virtualdub-fr.org || (build 2550/release)
Библиотека кодирования : VirtualDubMod build 2550/release
Видео
Идентификатор : 0
Формат : MPEG-4 Visual
Профиль формата : Advanced [email protected]
Параметр BVOP формата : 2
Параметр QPel формата : Нет
Параметр GMC формата : Без точки перехода
Параметр матрицы формата : Default (H.263)
Режим смешивания : Сжатый битовый поток
Идентификатор кодека : XVID
Идентификатор кодека/Подсказка : XviD
Продолжительность : 1 ч. 30 м.
Битрейт : 1711 Кбит/сек
Ширина : 720 пикселей
Высота : 304 пикселя
Соотношение сторон : 2,35:1
Частота кадров : 23,976 кадра/сек
Цветовое пространство : YUV
Субдискретизация насыщенности : 4:2:0
Битовая глубина : 8 бит
Тип развёртки : Прогрессивная
Метод сжатия : С потерями
Бит/(Пиксели*Кадры) : 0.326
Размер потока : 1,08 Гбайт (79%)
Библиотека кодирования : XviD 1.2.1 (UTC 2008-12-04)
Аудио
Идентификатор : 1
Формат : AC-3
Формат/Информация : Audio Coding 3
Расширение режима : CM (complete main)
Идентификатор кодека : 2000
Продолжительность : 1 ч. 30 м.
Вид битрейта : Постоянный
Битрейт : 448 Кбит/сек
Каналы : 6 каналов
Расположение каналов : Front: L C R, Side: L R, LFE
Частота : 48,0 КГц
Битовая глубина : 16 бит
Метод сжатия : С потерями
Размер потока : 290 Мбайт (21%)
Выравнивание : Разделение по промежуткам
Продолжительность промежутка : 42 мс. (1,00 видеокадр)
Время предзагрузки промежутка : 500 мс.


Download / Скачать

Хотите скачать бесплатно? Зарегистрируйтесь на сайте (ссылка на регистрацию). Pirat.ca - самый быстрый торрент трекер в рунете!

Как скачивать  ·   Что такое торрент  ·   Рейтинг и ограничения



Последний раз редактировалось: Moln1a (2011-10-28 08:57), всего редактировалось 1 раз

Granchak

Лоцман

Пост 27-Окт-2011 22:50 (спустя 42 минуты)

[Q] 

Становлюсь на раздачу
имею такой файл
[Профиль]  [ЛС] 

Moln1a ®

Корсар

12226

Пост 27-Окт-2011 22:55 (спустя 4 минуты)

[Q] 

Granchak,
И тебе спасибо
[Профиль]  [ЛС] 

?-?-?

Морской Волк

549

Пост 27-Окт-2011 23:13 (спустя 17 минут)

[Q] 

Становлюсь на раздачу
имею такой файл
Аналогично!
[Профиль]  [ЛС] 

-FrosT-

Лоцман

Пост 27-Окт-2011 23:17 (спустя 4 минуты)

[Q] 

Еще не успел посмотреть. Скачаем, поддержим роздачу. Автору спасибо!
[Профиль]  [ЛС] 

Пост 29-Окт-2011 05:33 (спустя 1 день 6 часов)

Топик был перенесен из форума Мультипликация в форум Новинки (BDRip/HDRip/DVDRip/DVDScr/ТС/SATRip/WP )

Чужая
 

Dj NIKI

Флибустьер

3041

Пост 29-Окт-2011 20:33 (спустя 1 день 21 час)

[Q] 

Становлюсь на раздачу
имею такой файл
Аналогично!
Поддерживаю!

_________________
[Профиль]  [ЛС] 

Koshatko

Шкипер

Пост 29-Окт-2011 21:21 (спустя 48 минут)

[Q] 

Закачаю, стану на раздачу :)
[Профиль]  [ЛС] 

Димидуэндо

Шкипер

Пост 01-Ноя-2011 18:55 (спустя 2 дня 21 час)

[Q] 

Спасибо!!! Неужели я его посмотрю bs . Удачи!!!

_________________
Лучше сказать мало но хорошо!
[Профиль]  [ЛС] 

Ичи

Морской Волк

Пост 02-Ноя-2011 10:09 (спустя 15 часов)

[Q] 

Спасибо!
З.Ы. Скачал - раздам.

_________________
(c)Incred. Морской Волк.
[Профиль]  [ЛС] 

EvoL-GolD

Лоцман

Пост 02-Ноя-2011 20:35 (спустя 10 часов)

[Q] 

I have long wanted to see, thank you
[Профиль]  [ЛС] 

ппавел

Шкипер

Пост 16-Ноя-2011 13:15 (спустя 13 дней)

[Q] 

на раздачу станавись! Спасибо!
[Профиль]  [ЛС] 

mishasmith.sx4

Шкипер

Пост 17-Ноя-2011 10:03 (спустя 20 часов)

[Q] 

...посмотрел с сыном, понравился, рекомендую для семейного просмотра
[Профиль]  [ЛС] 

anton777

Шкипер

215

Пост 24-Ноя-2011 08:01 (спустя 6 дней)

[Q] 

Спасибо , качаю .
[Профиль]  [ЛС] 

GarySk

Корсар

Пост 07-Дек-2011 21:15 (спустя 13 дней)

[Q] 

Спасибо большое!
[Профиль]  [ЛС] 

Пост 08-Дек-2011 14:29 (спустя 17 часов)

Топик был перенесен из форума Новинки (HD|DVD|BD|TV|SAT|PDTV| - Rips) в форум Зарубежные полнометражные мультфильмы

oliks
 

olmed

Корсар

Пост 23-Янв-2012 18:46 (спустя 1 месяц 15 дней)

[Q] 

спасибо
[Профиль]  [ЛС] 

olmed

Корсар

Пост 07-Фев-2012 19:44 (спустя 15 дней)

[Q] 

[Профиль]  [ЛС] 

ysd

Корсар

Пост 29-Сен-2012 18:06 (спустя 7 месяцев 21 день)

[Q] 

[Профиль]  [ЛС] 

shepyura

Штурман

Пост 21-Ноя-2012 12:32 (спустя 1 месяц 21 день)

[Q] 

[Профиль]  [ЛС] 

diamante283

Лоцман

Пост 03-Дек-2012 17:44 (спустя 12 дней)

[Q] 

[Профиль]  [ЛС] 

darkroot

Шкипер

Пост 26-Апр-2014 17:39 (спустя 1 год 4 месяца)

[Q] 

Спасибствуйте 27 А в чём собсно дело?

_________________
[Профиль]  [ЛС] 
Показать сообщения:    
Ответить на тему

Текущее время: Сегодня 14:45

Часовой пояс: GMT + 4



Вы не можете начинать темы
Вы не можете отвечать на сообщения
Вы не можете редактировать свои сообщения
Вы не можете удалять свои сообщения
Вы не можете голосовать в опросах
Вы не можете прикреплять файлы к сообщениям
Вы не можете скачивать файлы

▼ Вниз