ML
     
  Уважаемый Гость!
Вы можете поддержать проект и зарегистрироваться у наших партнеров - онлайн-стратегия MyLands. При регистрации в игре Вы получите код, который сможете активировать после регистрации на pirat.ca и получить 1000 дублонов.

Ваш код:
a01a592a88af5f9996a6d1baec61b18a1769954d
 
     

Приключения бурундучков / The Chipmunk Adventure (Дженис Карман / Janice Karman) [1987 г., мультфильм, мюзикл, фэнтези, комедия, приключения, семейный, HDRip-AVC] VO (Неизвестный) + Original (Eng) + Sub (Eng)

Ответить на тему
 
Автор
Сообщение

Пост 10-Окт-2014 17:22

[Q] 

Юрай

Флибустьер

-Приключения бурундучков / The Chipmunk Adventure-- Производство: США
Режиссер: Дженис Карман / Janice Karman
Жанр: мультфильм, мюзикл, фэнтези, комедия, приключения, семейный
Год выпуска: 1987 г.
Продолжительность: 01:17:02
Мировая премьера: 22 мая 1987
Перевод: Любительский (одноголосый, закадровый) [Неизвестный]
Оригинальный аудиопоток: английский
Субтитры: английские
Роли озвучивали: Росс Багдасарян мл., Дженис Карман, Доди Гудмен, Сьюзен Тиррел, Энтони Де Лонгис, Фрэнк Уэлкер, Нэнси Картрайт, Филип Л. Кларк, Кен Сэнсом, Джордж Поулос-Описание: Любимое трио — Элвин, Саймон и Теодор — в полнометражном мультфильме. Элвин заключает пари со своими друзьями. Тот, кто победит в гонках вокруг света, получит приз в 100 000 долларов. Но не все так легко, как кажется. На пути возникают препятствия, через которые им помогает пройти настоящая дружба.-IMDB КиноПоиск
Качество видео: HDRip-AVC
Контейнер: MKV
Видео кодек: H.264
Аудио кодек: AC3
Видео: 720x400, 23.976 fps, 2381 Kbps, 0.345 Bt/Px
Аудио: AC-3, 192 Kbps, 2 ch, 48.0 KHz Rus Одноголосый
Аудио #2: AC-3, 640 Kbps, 6 ch, 48.0 KHz Eng Original
Cубтитры: английские
Раздаю до первых 5 скачавших!
G:\загрузки\The_Chipmunk_Adventure_[Pirat.ca].torrent.mkv
General
Unique ID : 225668906006291285189857458225338955946 (0xA9C640178EC7A6C98F1BF35BE304B8AA)
Complete name : G:\загрузки\The_Chipmunk_Adventure_[Pirat.ca].torrent.mkv
Format : Matroska
Format version : Version 1
File size : 1.76 GiB
Duration : 1h 17mn
Overall bit rate : 3 278 Kbps
Movie name : The Chipmunk Adventure (1987)
Encoded date : UTC 2014-10-10 12:52:39
Writing application : mkvmerge v2.5.3 ('Boogie') built on Mar 7 2009 15:00:41
Writing library : libebml v0.7.7 + libmatroska v0.8.1
Video #1
ID : 1
Format : AVC
Format/Info : Advanced Video Codec
Format profile : [email protected]
Format settings, CABAC : Yes
Format settings, ReFrames : 8 frames
Codec ID : V_MPEG4/ISO/AVC
Duration : 1h 17mn
Bit rate : 2 381 Kbps
Nominal bit rate : 2 500 Kbps
Width : 720 pixels
Height : 400 pixels
Display aspect ratio : 16:9
Frame rate mode : Constant
Frame rate : 23.976 fps
Color space : YUV
Chroma subsampling : 4:2:0
Bit depth : 8 bits
Scan type : Progressive
Bits/(Pixel*Frame) : 0.345
Stream size : 1.28 GiB (73%)
Writing library : x264 core 130 r2273 b3065e6
Encoding settings : cabac=1 / ref=8 / deblock=1:-1:-1 / analyse=0x3:0x133 / me=umh / subme=11 / psy=1 / psy_rd=1.00:0.10 / mixed_ref=1 / me_range=32 / chroma_me=1 / trellis=2 / 8x8dct=1 / cqm=0 / deadzone=21,11 / fast_pskip=0 / chroma_qp_offset=-3 / threads=4 / lookahead_threads=4 / sliced_threads=0 / nr=0 / decimate=0 / interlaced=0 / bluray_compat=0 / constrained_intra=0 / bframes=8 / b_pyramid=2 / b_adapt=2 / b_bias=0 / direct=1 / weightb=1 / open_gop=0 / weightp=2 / keyint=250 / keyint_min=23 / scenecut=40 / intra_refresh=0 / rc_lookahead=40 / rc=abr / mbtree=1 / bitrate=2500 / ratetol=1.0 / qcomp=0.60 / qpmin=0 / qpmax=69 / qpstep=4 / ip_ratio=1.40 / aq=1:1.00
Language : English
Default : Yes
Forced : No
Audio #2
ID : 2
Format : AC-3
Format/Info : Audio Coding 3
Mode extension : CM (complete main)
Format settings, Endianness : Big
Codec ID : A_AC3
Duration : 1h 17mn
Bit rate mode : Constant
Bit rate : 192 Kbps
Channel(s) : 2 channels
Channel positions : Front: L R
Sampling rate : 48.0 KHz
Bit depth : 16 bits
Compression mode : Lossy
Stream size : 106 MiB (6%)
Title : VO
Language : Russian
Default : Yes
Forced : No
Audio #3
ID : 3
Format : AC-3
Format/Info : Audio Coding 3
Mode extension : CM (complete main)
Format settings, Endianness : Big
Codec ID : A_AC3
Duration : 1h 17mn
Bit rate mode : Constant
Bit rate : 640 Kbps
Channel(s) : 6 channels
Channel positions : Front: L C R, Side: L R, LFE
Sampling rate : 48.0 KHz
Bit depth : 16 bits
Compression mode : Lossy
Stream size : 353 MiB (20%)
Language : English
Default : No
Forced : No
Text #4
ID : 4
Format : UTF-8
Codec ID : S_TEXT/UTF8
Codec ID/Info : UTF-8 Plain Text
Language : English
Default : Yes
Forced : No
x264 [info]: frame I:953   Avg QP:14.46  size: 82751
x264 [info]: frame P:28405 Avg QP:17.88 size: 25934
x264 [info]: frame B:81469 Avg QP:20.29 size: 7311
x264 [info]: consecutive B-frames: 2.5% 4.2% 10.8% 48.8% 18.3% 11.3% 2.3% 1.1% 0.7%
x264 [info]: mb I I16..4: 12.3% 44.7% 43.0%
x264 [info]: mb P I16..4: 0.7% 5.6% 3.1% P16..4: 27.6% 33.2% 18.6% 5.4% 1.2% skip: 4.6%
x264 [info]: mb B I16..4: 0.1% 0.8% 0.4% B16..8: 30.1% 18.2% 4.8% direct: 8.3% skip:37.4% L0:40.5% L1:47.1% BI:12.4%
x264 [info]: final ratefactor: 16.40
x264 [info]: 8x8 transform intra:57.6% inter:43.6%
x264 [info]: coded y,uvDC,uvAC intra: 93.5% 93.7% 89.7% inter: 30.8% 43.5% 34.5%
x264 [info]: i16 v,h,dc,p: 19% 25% 23% 33%
x264 [info]: i8 v,h,dc,ddl,ddr,vr,hd,vl,hu: 7% 10% 14% 10% 12% 10% 12% 10% 14%
x264 [info]: i4 v,h,dc,ddl,ddr,vr,hd,vl,hu: 10% 10% 5% 10% 14% 12% 13% 11% 15%
x264 [info]: i8c dc,h,v,p: 54% 19% 12% 15%
x264 [info]: Weighted P-Frames: Y:5.4% UV:3.0%
x264 [info]: ref P L0: 40.7% 11.1% 21.9% 7.1% 7.2% 4.2% 4.7% 2.6% 0.5% 0.0%
x264 [info]: ref B L0: 68.6% 15.5% 6.2% 4.4% 2.7% 1.7% 0.9%
x264 [info]: ref B L1: 94.9% 5.1%
x264 [info]: kb/s:2442.23
x264 [total]: encoded 110827 frames, 10.77 fps, 2442.23 kb/s
Download / Скачать

Хотите скачать бесплатно? Зарегистрируйтесь на сайте (ссылка на регистрацию). Pirat.ca - самый быстрый торрент трекер в рунете!

Как скачивать  ·   Что такое торрент  ·   Рейтинг и ограничения

Показать сообщения:    
Ответить на тему

Текущее время: Сегодня 09:50

Часовой пояс: GMT + 4



Вы не можете начинать темы
Вы не можете отвечать на сообщения
Вы не можете редактировать свои сообщения
Вы не можете удалять свои сообщения
Вы не можете голосовать в опросах
Вы не можете прикреплять файлы к сообщениям
Вы не можете скачивать файлы

▼ Вниз