ML
     
  Уважаемый Гость!
Вы можете поддержать проект и зарегистрироваться у наших партнеров - онлайн-стратегия MyLands. При регистрации в игре Вы получите код, который сможете активировать после регистрации на pirat.ca и получить 1000 дублонов.

Ваш код:
9cfe162481db953a6549f32179d7b3900b8b8643
 
     

Как приручить дракона 2 / How to Train Your Dragon 2 (Дин ДеБлуа / Dean DeBlois) [2014 г., Мультфильм, фэнтези, комедия, приключения, семейный, BDRip] Dub (Лицензия)

Ответить на тему
 
Автор
Сообщение

Пост 19-Окт-2014 08:51

[Q] 

LPPI

-Как приручить дракона 2 / How to Train Your Dragon 2- Производство: США, DreamWorks Animation, Mad Hatter Entertainment
Год выпуска: 2014 г.
Жанр: Мультфильм, фэнтези, комедия, приключения, семейный
Продолжительность: 01:41:55
Мировая премьера: 16 мая 2014
Российская премьера: 12 июня 2014, «Двадцатый Век Фокс СНГ»
Дата выхода DVD: 1 ноября 2014, «Двадцатый Век Фокс СНГ»
Дата выхода Blu-Ray: 1 ноября 2014, «Двадцатый Век Фокс СНГ»
Перевод: Профессиональный (полное дублирование) [Лицензия]-Режиссер: Дин ДеБлуа / Dean DeBlois
В ролях: Джей Барушель. Кейт Бланшетт, Джерард Батлер, Крэйг Фергюсон, Америка Феррера, Джона Хилл, Кристофер Минц-Плассе, ТиДжей Миллер
Кристен Уиг, Джимон Хонсу-Описание: С момента примирения викингов и драконов прошло пять лет. Пока Астрид, Сморкала и остальные ребята проводят время, соревнуясь друг с другом в популярных на острове драконьих гонках, Иккинг и Беззубик путешествуют по небу, составляя карту неизвестных мест. Когда одно из их приключений приводит к открытию тайной ледяной пещеры, которая является домом для сотен ранее невиданных диких драконов и таинственного драконьего всадника, два друга оказываются в центре битвы за защиту мира.- -Качество видео: BDRip
Контейнер: AVI
Видео кодек: XviD
Аудио кодек: AC3
Видео: 720x304 (2.37:1), 23.976 fps, XviD build 65 ~1576 kbps avg, 0.30 bit/pixel
Аудио: 48 kHz, AC3 Dolby Digital, 3/2 (L,C,R,l,r) + LFE ch, ~448 kbps
Cубтитры: отсутствуют
General
Complete name : D:\Kak.priruchit.drakona.2.2014.D.BDRip.avi
Format : AVI
Format/Info : Audio Video Interleave
File size : 1.45 GiB
Duration : 1h 41mn
Overall bit rate : 2 034 Kbps
Writing application : VirtualDubMod 1.5.10.3 | www.virtualdub-fr.org || (build 2550/release)
Writing library : VirtualDubMod build 2550/release
Video
ID : 0
Format : MPEG-4 Visual
Format profile : Advanced [email protected]
Format settings, BVOP : 1
Format settings, QPel : No
Format settings, GMC : No warppoints
Format settings, Matrix : Custom
Codec ID : XVID
Codec ID/Hint : XviD
Duration : 1h 41mn
Bit rate : 1 577 Kbps
Width : 720 pixels
Height : 304 pixels
Display aspect ratio : 2.35:1
Frame rate : 23.976 fps
Color space : YUV
Chroma subsampling : 4:2:0
Bit depth : 8 bits
Scan type : Progressive
Compression mode : Lossy
Bits/(Pixel*Frame) : 0.300
Stream size : 1.12 GiB (78%)
Writing library : XviD 65
Audio
ID : 1
Format : AC-3
Format/Info : Audio Coding 3
Mode extension : CM (complete main)
Format settings, Endianness : Big
Codec ID : 2000
Duration : 1h 41mn
Bit rate mode : Constant
Bit rate : 448 Kbps
Channel(s) : 6 channels
Channel positions : Front: L C R, Side: L R, LFE
Sampling rate : 48.0 KHz
Bit depth : 16 bits
Compression mode : Lossy
Stream size : 327 MiB (22%)
Alignment : Split accross interleaves
Interleave, duration : 42 ms (1.00 video frame)
Interleave, preload duration : 500 ms
Download / Скачать

Хотите скачать бесплатно? Зарегистрируйтесь на сайте (ссылка на регистрацию). Pirat.ca - самый быстрый торрент трекер в рунете!

Как скачивать  ·   Что такое торрент  ·   Рейтинг и ограничения

Пост 19-Окт-2014 09:59 (спустя 1 час 8 минут)

Топик был перенесен из форума Зарубежное Кино (Трюм) в форум Новинки (HD|DVD|BD| TV|SAT|PDTV| - Rips)
erchine
 

лысый 777

Морской Волк

Пост 19-Окт-2014 11:49 (спустя 2 часа 57 минут)

[Q] 

классный мульт Всем качать!!!
[Профиль]  [ЛС] 

viktor41

Шкипер

Пост 19-Окт-2014 16:30 (спустя 4 часа)

[Q] 

LPPI, Спасибо !Классный мульт... Всем качать!!! Супер!
[Профиль]  [ЛС] 

MikeB

Гроза морей

Пост 19-Окт-2014 17:12 (спустя 42 минуты)

[Q] 

отличный мультфильм Всем качать!!!
[Профиль]  [ЛС] 

Танюха10988

Гроза морей

Пост 19-Окт-2014 20:32 (спустя 3 часа)

[Q] 

Спасибо Супер! Автору респект!!!
[Профиль]  [ЛС] 

uzi

Морской Волк

Пост 19-Окт-2014 20:50 (спустя 17 минут)

[Q] 

спасибо Раздающему респект!
[Профиль]  [ЛС] 

emerica

Штурман

Пост 21-Окт-2014 19:33 (спустя 1 день 22 часа)

[Q] 

Первая часть больше понравилась !COOL!
[Профиль]  [ЛС] 

metaborus

Шкипер

Пост 18-Ноя-2014 22:34 (спустя 28 дней)

[Q] 

заценим!!! Спасибо!!!
[Профиль]  [ЛС] 

Пост 19-Ноя-2014 15:28 (спустя 16 часов)

Топик был перенесен из форума Новинки (HD|DVD|BD| TV|SAT|PDTV| - Rips) в форум Зарубежные полнометражные мультфильмы
LPPI
 

eugenea49

Морской Волк

Пост 07-Фев-2015 10:00 (спустя 2 месяца 18 дней)

[Q] 

Лови бочку
[Профиль]  [ЛС] 

duvet

Штурман

Пост 15-Фев-2015 02:36 (спустя 7 дней)

[Q] 

Классный мультик Супер!
[Профиль]  [ЛС] 

Marvin

Штурман

Пост 02-Мар-2015 00:49 (спустя 14 дней)

[Q] 

Благодарю, посмотрим!) Спасибо!!!
[Профиль]  [ЛС] 

lexaspirit

Пост 04-Апр-2016 18:34 (спустя 1 год 1 месяц)

[Q] 

Первая понравилась больше. Вторая - незачет

_________________
-------------------- ----------------------
[Профиль]  [ЛС] 
Показать сообщения:    
Ответить на тему

Текущее время: Сегодня 06:00

Часовой пояс: GMT + 4



Вы не можете начинать темы
Вы не можете отвечать на сообщения
Вы не можете редактировать свои сообщения
Вы не можете удалять свои сообщения
Вы не можете голосовать в опросах
Вы не можете прикреплять файлы к сообщениям
Вы не можете скачивать файлы

▼ Вниз