ML
     
  Уважаемый Гость!
Вы можете поддержать проект и зарегистрироваться у наших партнеров - онлайн-стратегия MyLands. При регистрации в игре Вы получите код, который сможете активировать после регистрации на pirat.ca и получить 1000 дублонов.

Ваш код:
0ea1bf889af42fca5f67d0a391efb3400850ad7c
 
     

Как приручить дракона 2 / How to Train Your Dragon 2 (Дин ДеБлуа / Dean DeBlois) [2014 г., Мультфильм, фэнтези, комедия, приключения, семейный, BDRip-AVC] Dub [Ukr, Rus] (Лицензия) + Original (Eng) + Sub (Rus, Ukr, Eng)

Ответить на тему
 
Автор
Сообщение

Пост 19-Окт-2014 09:02

[Q] 

LPPI

-Как приручить дракона 2 / How to Train Your Dragon 2- Производство: США, DreamWorks Animation, Mad Hatter Entertainment
Год выпуска: 2014 г.
Жанр: Мультфильм, фэнтези, комедия, приключения, семейный
Продолжительность: 01:41:55
Мировая премьера: 16 мая 2014
Российская премьера: 12 июня 2014, «Двадцатый Век Фокс СНГ»
Дата выхода DVD: 1 ноября 2014, «Двадцатый Век Фокс СНГ»
Дата выхода Blu-Ray: 1 ноября 2014, «Двадцатый Век Фокс СНГ»
Перевод: Профессиональный (полное дублирование) [Ukr, Rus] (Лицензия)
Оригинальный аудиопоток: английский-Режиссер: Дин ДеБлуа / Dean DeBlois
В ролях: Джей Барушель. Кейт Бланшетт, Джерард Батлер, Крэйг Фергюсон, Америка Феррера, Джона Хилл, Кристофер Минц-Плассе, ТиДжей Миллер
Кристен Уиг, Джимон Хонсу-Описание: С момента примирения викингов и драконов прошло пять лет. Пока Астрид, Сморкала и остальные ребята проводят время, соревнуясь друг с другом в популярных на острове драконьих гонках, Иккинг и Беззубик путешествуют по небу, составляя карту неизвестных мест. Когда одно из их приключений приводит к открытию тайной ледяной пещеры, которая является домом для сотен ранее невиданных диких драконов и таинственного драконьего всадника, два друга оказываются в центре битвы за защиту мира.- -Качество видео: BDRip-AVC
Контейнер: MKV
Видео кодек: MPEG4 AVC
Аудио кодек: AC3
Видео: 1024x436 (2.35:1), 2 500 Kbps, 23.976 fps, 0.234 bit/pix
Аудио: 448 Kbps, 6 ch, 48.0 KHz - Rus
Аудио #2: 448 Kbps, 6 ch, 48.0 KHz - Ukr
Аудио #3: 448 Kbps, 6 ch, 48.0 KHz - Eng
Cубтитры: Русские, украинские, английские
General
Unique ID : 201495201767841690916164683312220325966 (0x979690743A7331DAA60A54B1D363C84E)
Complete name : D:\Kak.priuchit'.drakona-2.2014.BDRip.(AVC).mkv
Format : Matroska
Format version : Version 4 / Version 2
File size : 2.74 GiB
Duration : 1h 41mn
Overall bit rate : 3 846 Kbps
Encoded date : UTC 2014-10-18 13:40:44
Writing application : mkvmerge v6.9.1 ('Blue Panther') 64bit built on Apr 18 2014 18:23:38
Writing library : libebml v1.3.0 + libmatroska v1.4.1
Video
ID : 1
Format : AVC
Format/Info : Advanced Video Codec
Format profile : [email protected]
Format settings, CABAC : Yes
Format settings, ReFrames : 10 frames
Codec ID : V_MPEG4/ISO/AVC
Duration : 1h 41mn
Bit rate : 2 500 Kbps
Width : 1 024 pixels
Height : 436 pixels
Display aspect ratio : 2.35:1
Frame rate mode : Constant
Frame rate : 23.976 fps
Color space : YUV
Chroma subsampling : 4:2:0
Bit depth : 8 bits
Scan type : Progressive
Bits/(Pixel*Frame) : 0.234
Stream size : 1.73 GiB (63%)
Writing library : x264 core 142 r2431+42 c69a006 tMod [[email protected]:2:0 X86_64]
Encoding settings : cabac=1 / ref=10 / deblock=1:-3:-3 / analyse=0x3:0x113 / me=umh / subme=11 / psy=1 / fade_compensate=0.00 / psy_rd=1.00:0.00 / mixed_ref=1 / me_range=32 / chroma_me=1 / trellis=2 / 8x8dct=1 / cqm=0 / deadzone=21,11 / fast_pskip=0 / chroma_qp_offset=-2 / threads=12 / lookahead_threads=3 / sliced_threads=0 / nr=0 / decimate=0 / interlaced=0 / bluray_compat=0 / constrained_intra=0 / fgo=0 / bframes=14 / b_pyramid=2 / b_adapt=2 / b_bias=0 / direct=3 / weightb=1 / open_gop=0 / weightp=2 / keyint=240 / keyint_min=23 / scenecut=40 / intra_refresh=0 / rc=2pass / mbtree=0 / bitrate=2500 / ratetol=1.0 / qcomp=0.60 / qpmin=0:0:0 / qpmax=69:69:69 / qpstep=4 / cplxblur=20.0 / qblur=0.5 / ip_ratio=1.40 / pb_ratio=1.30 / aq=4:0.80 / aq-sensitivity=10.00 / aq-factor=1.00:1.00:1.00 / aq2=0 / aq3=0
Default : Yes
Forced : No
Audio #1
ID : 2
Format : AC-3
Format/Info : Audio Coding 3
Mode extension : CM (complete main)
Format settings, Endianness : Big
Codec ID : A_AC3
Duration : 1h 41mn
Bit rate mode : Constant
Bit rate : 448 Kbps
Channel(s) : 6 channels
Channel positions : Front: L C R, Side: L R, LFE
Sampling rate : 48.0 KHz
Bit depth : 16 bits
Compression mode : Lossy
Stream size : 327 MiB (12%)
Title : Dub
Language : Russian
Default : Yes
Forced : No
Audio #2
ID : 3
Format : AC-3
Format/Info : Audio Coding 3
Mode extension : CM (complete main)
Format settings, Endianness : Big
Codec ID : A_AC3
Duration : 1h 41mn
Bit rate mode : Constant
Bit rate : 448 Kbps
Channel(s) : 6 channels
Channel positions : Front: L C R, Side: L R, LFE
Sampling rate : 48.0 KHz
Bit depth : 16 bits
Compression mode : Lossy
Stream size : 327 MiB (12%)
Title : Dub
Language : Ukrainian
Default : No
Forced : No
Audio #3
ID : 4
Format : AC-3
Format/Info : Audio Coding 3
Mode extension : CM (complete main)
Format settings, Endianness : Big
Codec ID : A_AC3
Duration : 1h 41mn
Bit rate mode : Constant
Bit rate : 448 Kbps
Channel(s) : 6 channels
Channel positions : Front: L C R, Side: L R, LFE
Sampling rate : 48.0 KHz
Bit depth : 16 bits
Compression mode : Lossy
Stream size : 327 MiB (12%)
Language : English
Default : No
Forced : No
Text #1
ID : 5
Format : UTF-8
Codec ID : S_TEXT/UTF8
Codec ID/Info : UTF-8 Plain Text
Language : Russian
Default : No
Forced : No
Text #2
ID : 6
Format : UTF-8
Codec ID : S_TEXT/UTF8
Codec ID/Info : UTF-8 Plain Text
Language : Ukrainian
Default : No
Forced : No
Text #3
ID : 7
Format : UTF-8
Codec ID : S_TEXT/UTF8
Codec ID/Info : UTF-8 Plain Text
Language : English
Default : No
Forced : No
Menu
00:00:00.000 : en:Chapter 01
00:03:27.999 : en:Chapter 02
00:05:20.695 : en:Chapter 03
00:07:46.007 : en:Chapter 04
00:10:16.032 : en:Chapter 05
00:13:16.337 : en:Chapter 06
00:16:59.059 : en:Chapter 07
00:20:01.700 : en:Chapter 08
00:23:43.255 : en:Chapter 09
00:27:14.466 : en:Chapter 10
00:29:21.468 : en:Chapter 11
00:33:41.936 : en:Chapter 12
00:37:05.473 : en:Chapter 13
00:39:06.969 : en:Chapter 14
00:40:59.165 : en:Chapter 15
00:45:03.992 : en:Chapter 16
00:47:16.625 : en:Chapter 17
00:51:51.525 : en:Chapter 18
00:54:35.730 : en:Chapter 19
00:56:15.997 : en:Chapter 20
01:00:33.171 : en:Chapter 21
01:04:28.781 : en:Chapter 22
01:06:34.949 : en:Chapter 23
01:09:44.138 : en:Chapter 24
01:14:02.146 : en:Chapter 25
01:18:35.127 : en:Chapter 26
01:21:07.153 : en:Chapter 27
01:22:55.053 : en:Chapter 28
01:24:30.065 : en:Chapter 29
01:28:04.654 : en:Chapter 30
01:31:03.499 : en:Chapter 31
01:32:21.994 : en:Chapter 32
Download / Скачать

Хотите скачать бесплатно? Зарегистрируйтесь на сайте (ссылка на регистрацию). Pirat.ca - самый быстрый торрент трекер в рунете!

Как скачивать  ·   Что такое торрент  ·   Рейтинг и ограничения

Antarres

Легенда

Пост 19-Окт-2014 17:08 (спустя 8 часов)

[Q] 

Thanks !

_________________
[Профиль]  [ЛС] 

Танюха10988

Гроза морей

Пост 19-Окт-2014 20:18 (спустя 3 часа)

[Q] 

Спасибо за мультик
[Профиль]  [ЛС] 

ALEHAN

Легенда

Пост 06-Ноя-2014 20:18 (спустя 18 дней)

[Q] 

Разочарован. Есть сериал, так вот эта полнометражка лучше бы смотрелась порезанной на серии сериала. Сюжет слаб, картинка слабая, на полноценное продолжение не тянет.
[Профиль]  [ЛС] 

sashafandey

Морской Волк

Пост 06-Ноя-2014 20:31 (спустя 12 минут)

[Q] 

жена в восторге нормальный мульт малый не захотел смотреть
[Профиль]  [ЛС] 

Анна 341662

Корсар

11

Пост 14-Ноя-2014 20:55 (спустя 8 дней)

[Q] 

Ураааааааааааааааааааааааааааааааааа, дождалась!! Спасибо!
[Профиль]  [ЛС] 

happygirl

Штурман

Пост 17-Ноя-2014 21:04 (спустя 3 дня)

[Q] 

Ждала вторую часть, спасииибо:
[Профиль]  [ЛС] 

Kotello

Шкипер

Пост 18-Ноя-2014 10:43 (спустя 13 часов)

[Q] 

прикольный мультик. время потрачено не зря Автору респект!!!
[Профиль]  [ЛС] 

Пост 19-Ноя-2014 15:29 (спустя 1 день 4 часа)

Топик был перенесен из форума Новинки (HD|DVD|BD| TV|SAT|PDTV| - Rips) в форум Зарубежные полнометражные мультфильмы
LPPI
 

Dezving

Шкипер

Пост 22-Дек-2014 00:31 (спустя 1 месяц 3 дня)

[Q] 

Супер! Спасибо!!!
[Профиль]  [ЛС] 

straHH1k

Штурман

Пост 22-Дек-2014 12:35 (спустя 12 часов)

[Q] 

Спасибо, забрал!)
[Профиль]  [ЛС] 

Rdayz

Лоцман

Пост 08-Фев-2015 12:57 (спустя 1 месяц 17 дней)

[Q] 

Лови бочку Спасибо!!!
[Профиль]  [ЛС] 

s.v.l

Корсар

Пост 14-Мар-2015 00:24 (спустя 1 месяц 5 дней)

[Q] 

Спасибо!!!
Лови бочку
[Профиль]  [ЛС] 
Показать сообщения:    
Ответить на тему

Текущее время: Сегодня 00:35

Часовой пояс: GMT + 4



Вы не можете начинать темы
Вы не можете отвечать на сообщения
Вы не можете редактировать свои сообщения
Вы не можете удалять свои сообщения
Вы не можете голосовать в опросах
Вы не можете прикреплять файлы к сообщениям
Вы не можете скачивать файлы

▼ Вниз