ML
     
  Уважаемый Гость!
Вы можете поддержать проект и зарегистрироваться у наших партнеров - онлайн-стратегия MyLands. При регистрации в игре Вы получите код, который сможете активировать после регистрации на pirat.ca и получить 1000 дублонов.

Ваш код:
c89b4b6523eaac3173e9a9c062ac1a19db575961
 
     

Самолеты: Огонь и вода / Planes: Fire and Rescue (Роберт Ганнавей / Robert Gannaway) [2014 г., мультфильм, комедия, приключения, семейный, HDRip] Dub (iTunes)

Ответить на тему
 
Автор
Сообщение

Пост 28-Окт-2014 21:56

[Q] 

LPPI

-Самолеты: Огонь и вода / Planes: Fire and Rescue-«When others fly out, heroes fly in»- Производство: США
Год выпуска: 2014 г.
Жанр: мультфильм, комедия, приключения, семейный
Продолжительность: 01:23:38
Мировая премьера: 15 июля 2014
Российская премьера: 21 августа 2014, «WDSSPR»
Дата выхода DVD: 18 ноября 2014, «Уолт Дисней Компани СНГ»
Дата выхода Blu-Ray: 18 ноября 2014, «Уолт Дисней Компани СНГ»
Перевод: Профессиональный (полное дублирование) [iTunes]-Режиссер: Роберт Ганнавей / Robert Gannaway
В ролях: Дейн Кук, Эд Харрис, Джули Боуэн, Кертис Армстронг, Джон Майкл Хиггинс, Хэл Холбрук, Уэс Стьюди, Брэд Гэррет, Тери Хэтчер, Стейси Кич-Описание: Самолетик Дасти, который стал уже легендой воздушных гонок, вскоре узнает, что его двигатель сильно повреждён, и он никогда не может больше участвовать в скоростных воздушных гонках. Дасти ищет себе новое занятие и знакомится с мужественной пожарно-спасательной командой, которой руководит ветеран авиации вертолёт по имени Ренждер. Узнав, насколько тяжела и опасна работа пожарной авиации, Дасти поймёт, что такое настоящий героизм и самоотдача, и сам захочет стать спасателем.- -Качество видео: HDRip
Контейнер: AVI
Видео кодек: XviD
Аудио кодек: AC3
Видео: 720x304 (2.37:1), 23.976 fps, XviD build 50 ~1946 kbps avg, 0.37 bit/pixel
Аудио: 48 kHz, AC3 Dolby Digital, 3/2 (L,C,R,l,r) + LFE ch, ~384 kbps
Cубтитры: отсутствуют
General
Complete name : D:\Sam0lety.2.2014.D.HDRip.1400MB.avi
Format : AVI
Format/Info : Audio Video Interleave
File size : 1.37 GiB
Duration : 1h 23mn
Overall bit rate : 2 340 Kbps
Writing application : VirtualDubMod 1.5.10.2 (build 2540/release)
Writing library : VirtualDubMod build 2540/release
Video
ID : 0
Format : MPEG-4 Visual
Format profile : Advanced [email protected]
Format settings, BVOP : 2
Format settings, QPel : No
Format settings, GMC : No warppoints
Format settings, Matrix : Default (MPEG)
Codec ID : XVID
Codec ID/Hint : XviD
Duration : 1h 23mn
Bit rate : 1 947 Kbps
Width : 720 pixels
Height : 304 pixels
Display aspect ratio : 2.35:1
Frame rate : 23.976 fps
Color space : YUV
Chroma subsampling : 4:2:0
Bit depth : 8 bits
Scan type : Progressive
Compression mode : Lossy
Bits/(Pixel*Frame) : 0.371
Stream size : 1.14 GiB (83%)
Writing library : XviD 1.2.1 (UTC 2008-12-04)
Audio
ID : 1
Format : AC-3
Format/Info : Audio Coding 3
Mode extension : CM (complete main)
Format settings, Endianness : Big
Codec ID : 2000
Duration : 1h 23mn
Bit rate mode : Constant
Bit rate : 384 Kbps
Channel(s) : 6 channels
Channel positions : Front: L C R, Side: L R, LFE
Sampling rate : 48.0 KHz
Bit depth : 16 bits
Compression mode : Lossy
Stream size : 230 MiB (16%)
Alignment : Split accross interleaves
Interleave, duration : 42 ms (1.00 video frame)
Interleave, preload duration : 500 ms
Download / Скачать

Хотите скачать бесплатно? Зарегистрируйтесь на сайте (ссылка на регистрацию). Pirat.ca - самый быстрый торрент трекер в рунете!

Как скачивать  ·   Что такое торрент  ·   Рейтинг и ограничения

}{rYn4iK

Морской Волк

Пост 01-Ноя-2014 11:08 (спустя 3 дня)

[Q] 

Сппасибо ребенок просто счастлив))))
[Профиль]  [ЛС] 

Dobrjak2

Штурман

Пост 04-Ноя-2014 12:18 (спустя 3 дня)

[Q] 

Я уже устал писать про идиотов отмороженных, переводящих название... Кончите себе в ухо и захлебнитесь.
[Профиль]  [ЛС] 

Region-89

Гроза морей

550

Пост 04-Ноя-2014 12:45 (спустя 26 минут)

[Q] 

600999Я уже устал писать про идиотов отмороженных, переводящих название... Кончите себе в ухо и захлебнитесь.
iTunes en

_________________
[Профиль]  [ЛС] 

Greef

Штурман

Пост 05-Ноя-2014 13:51 (спустя 1 день 1 час)

[Q] 

Спасибо Супер!
[Профиль]  [ЛС] 

Ливень

Корсар

Пост 12-Фев-2015 23:37 (спустя 3 месяца 7 дней)

[Q] 

Нормальный мульт Всем качать!!!
[Профиль]  [ЛС] 
Показать сообщения:    
Ответить на тему

Текущее время: Сегодня 22:28

Часовой пояс: GMT + 4



Вы не можете начинать темы
Вы не можете отвечать на сообщения
Вы не можете редактировать свои сообщения
Вы не можете удалять свои сообщения
Вы не можете голосовать в опросах
Вы не можете прикреплять файлы к сообщениям
Вы не можете скачивать файлы

▼ Вниз