ML
     
  Уважаемый Гость!
Вы можете поддержать проект и зарегистрироваться у наших партнеров - онлайн-стратегия MyLands. При регистрации в игре Вы получите код, который сможете активировать после регистрации на pirat.ca и получить 1000 дублонов.

Ваш код:
11f49771fdf057c9d51610e4a0925c3b46ddb655
 
     

Медведи-соседи / Boonie Bears, to the Rescue! (Динг Лианг / Ding Liang, Fuyuan Liu) [2014 г., мультфильм, комедия, приключения, WEB-DLRip] Dub (iTunes)

Ответить на тему
 
Автор
Сообщение

Пост 30-Окт-2014 13:51

[Q] 

LPPI

-Медведи-соседи / Boonie Bears, to the Rescue!- Производство: Китай
Год выпуска: 2014 г.
Жанр: мультфильм, комедия, приключения
Продолжительность: 01:35:00
Мировая премьера: 17 января 2014
Российская премьера: 9 октября 2014, «Ракета Релизинг»
Перевод: Профессиональный (полное дублирование) [iTunes]-Режиссер: Динг Лианг / Ding Liang, Fuyuan Liu
В ролях: Анатолий Сергеев, Дмитрий Хрусталев, Тимур Батрутдинов-Описание: Медведям-соседям и вездесущему дровосеку придется стать нянями очутившегося у них в лесу ребенка. Все бы ничего, если бы эта девочка не была до этого похищена и упущена бандитами, которые жаждут ее вернуть и доставить заказчику — главному злодею. Теперь нашим героям предстоит сразиться с плохими парнями и помочь найти дорогу домой малышке.- -Качество видео: WEB-DLRip
Контейнер: AVI
Видео кодек: XviD
Аудио кодек: AC3
Видео: 720x400 (1.80:1), 24 fps, XviD build 50 ~1704 kbps avg, 0.25 bit/pixel
Аудио: 48 kHz, AC3 Dolby Digital, 3/2 (L,C,R,l,r) + LFE ch, ~384 kbps
Cубтитры: отсутствуют
General
Complete name : D:\Medvedi.sosedi.2014.D.WEB-DLRip.1400MB.avi
Format : AVI
Format/Info : Audio Video Interleave
File size : 1.37 GiB
Duration : 1h 33mn
Overall bit rate : 2 098 Kbps
Writing application : VirtualDubMod 1.5.10.3 | www.virtualdub-fr.org || (build 2550/release)
Writing library : VirtualDubMod build 2550/release
Video
ID : 0
Format : MPEG-4 Visual
Format profile : Advanced [email protected]
Format settings, BVOP : 2
Format settings, QPel : No
Format settings, GMC : No warppoints
Format settings, Matrix : Default (MPEG)
Codec ID : XVID
Codec ID/Hint : XviD
Duration : 1h 33mn
Bit rate : 1 705 Kbps
Width : 720 pixels
Height : 400 pixels
Display aspect ratio : 16:9
Frame rate : 24.000 fps
Color space : YUV
Chroma subsampling : 4:2:0
Bit depth : 8 bits
Scan type : Progressive
Compression mode : Lossy
Bits/(Pixel*Frame) : 0.247
Stream size : 1.11 GiB (81%)
Writing library : XviD 1.2.1 (UTC 2008-12-04)
Audio
ID : 1
Format : AC-3
Format/Info : Audio Coding 3
Mode extension : CM (complete main)
Format settings, Endianness : Big
Codec ID : 2000
Duration : 1h 33mn
Bit rate mode : Constant
Bit rate : 384 Kbps
Channel(s) : 6 channels
Channel positions : Front: L C R, Side: L R, LFE
Sampling rate : 48.0 KHz
Bit depth : 16 bits
Compression mode : Lossy
Stream size : 256 MiB (18%)
Alignment : Split accross interleaves
Interleave, duration : 42 ms (1.00 video frame)
Interleave, preload duration : 500 ms
Download / Скачать

Хотите скачать бесплатно? Зарегистрируйтесь на сайте (ссылка на регистрацию). Pirat.ca - самый быстрый торрент трекер в рунете!

Как скачивать  ·   Что такое торрент  ·   Рейтинг и ограничения

zlotosalien

Флибустьер

Пост 30-Окт-2014 13:57 (спустя 5 минут)

[Q] 

Мультсериал хрень полная, еще и мультфильм сняли и сперли образы обезьянки, из обучающего видео для детей "Обезьянка видит, обезьянка делает"...и маленькой девочки из "Гадкий Я".
[Профиль]  [ЛС] 

Jek@

Легенда

Пост 30-Окт-2014 15:51 (спустя 1 час 54 минуты)

[Q] 

Спасибо!!! .
[Профиль]  [ЛС] 

Alexlogin

Гроза морей

105

Пост 30-Окт-2014 16:24 (спустя 33 минуты)

[Q] 

Спасибо пусть дети посмотрят
[Профиль]  [ЛС] 

sergreyice

Шкипер

Пост 30-Окт-2014 17:13 (спустя 48 минут)

[Q] 

Классная тема Спасибо!!!
[Профиль]  [ЛС] 

lexmar

Корсар

Пост 30-Окт-2014 18:33 (спустя 1 час 20 минут)

[Q] 

Лови бочку Спасибо!!! одобрямс
[Профиль]  [ЛС] 

srg078rus

Корсар

97

Пост 30-Окт-2014 18:54 (спустя 20 минут)

[Q] 

Лови бочку

_________________
[Профиль]  [ЛС] 

anatolyul

Морской Волк

Пост 30-Окт-2014 20:07 (спустя 1 час 13 минут)

[Q] 

классный мульт, мелкие визжат! Спасибо!!!
[Профиль]  [ЛС] 

Карим

Лоцман

Пост 30-Окт-2014 20:19 (спустя 12 минут)

[Q] 

Спасибо!!! .посмотрим с удовольствием
[Профиль]  [ЛС] 

лысый 777

Морской Волк

Пост 01-Ноя-2014 11:49 (спустя 1 день 15 часов)

[Q] 

Медведи-соседи ))) Спасибо!!!
[Профиль]  [ЛС] 

uzi

Морской Волк

Пост 01-Ноя-2014 12:26 (спустя 37 минут)

[Q] 

забираю,спасибо Ку три раза
[Профиль]  [ЛС] 

Мишки

Морской Волк

Пост 01-Ноя-2014 14:38 (спустя 2 часа 11 минут)

[Q] 

Ужасно не симпатичные герои и мерзкий дед с ружьем. Образ алкашей медведей и их собутыльника мерзкого деда. Плюс ко всему жуткий перевод. Мои дети не будут смотреть и впитывать в себя этот ужас. Спасибо!

_________________
Это всего лишь игра, настройся на волну позитива!:)
[Профиль]  [ЛС] 

mol4un

Лоцман

Пост 01-Ноя-2014 21:58 (спустя 7 часов)

[Q] 

Спасибо, ребенок смотрит с удовольствием.
[Профиль]  [ЛС] 

zlotosalien

Флибустьер

Пост 02-Ноя-2014 12:08 (спустя 14 часов)

[Q] 

599530Ужасно не симпатичные герои и мерзкий дед с ружьем. Образ алкашей медведей и их собутыльника мерзкого деда. Плюс ко всему жуткий перевод. Мои дети не будут смотреть и впитывать в себя этот ужас. Спасибо!
Я своей маленькой дочке не покеазываю такое непотребство...да и она сама, слава Богу не смотрит такое.
[Профиль]  [ЛС] 

СерВолк

Корсар

Пост 05-Ноя-2014 03:36 (спустя 2 дня 15 часов)

[Q] 

16+
весь мульт бегают орут голова устала .. не досмотрел до конца
детям не рекомендую ..
[Профиль]  [ЛС] 

Securityuser

Флибустьер

Пост 12-Ноя-2014 15:28 (спустя 7 дней)

[Q] 

Спасибо за раздачу!
[Профиль]  [ЛС] 
Показать сообщения:    
Ответить на тему

Текущее время: Сегодня 03:13

Часовой пояс: GMT + 4



Вы не можете начинать темы
Вы не можете отвечать на сообщения
Вы не можете редактировать свои сообщения
Вы не можете удалять свои сообщения
Вы не можете голосовать в опросах
Вы не можете прикреплять файлы к сообщениям
Вы не можете скачивать файлы

▼ Вниз