ML
     
  Уважаемый Гость!
Вы можете поддержать проект и зарегистрироваться у наших партнеров - онлайн-стратегия MyLands. При регистрации в игре Вы получите код, который сможете активировать после регистрации на pirat.ca и получить 1000 дублонов.

Ваш код:
500cb7bd8d2cec9a8aba647a87ce41c4b76f06bd
 
     

Персеполис / Persepolis (Марк Жуссе / Marc Jousser) [2007 г., драма, военный, биография, анимация, BDRip] MVO + Original (Fre) + Sub (Rus, Eng)

Ответить на тему
 
Автор
Сообщение

Пост 08-Ноя-2014 11:01

[Q] 

AnastasWolf

Персеполис / Persepolis- Год выпуска: 2007 г.
Производство: США , Франция , Sony Pictures Classics, France 3 Cinema, The Kennedy/Marshall Company
Жанр: драма, военный, биография, анимация
Продолжительность: 01:35:32
Мировая премьера: 23 мая 2007
Российская премьера: 28 октября 2009, «Кармен Видео»
Перевод: Профессиональный (многоголосый, закадровый)
Оригинальный аудиопоток: французский
Режиссёр: Марк Жуссе / Marc Jousser
Роли озвучивали: Кьяра Мастроянни, Катрин Денёв, Даниель Дарьё, Симон Абкарян, Габриель Лопес Бенитес, Франсуа Жеросме, Софи Артурус, Ари Эльмалех, Матиа Млекюз, Аметист Фрезиньяк-Описание: Тегеран, 1978 г. 8-летняя Марджан мечтает стать пророком и спасти человечество. Она увлечённо следит за событиями, которые вскоре приводят к революции и падению режима Шаха. С установлением исламской республики приходит время «революционных комиссаров». Марджан вынуждена теперь носить чадру, но в мечтах видит себя революционеркой.
С началом войны против Ирака начинаются бомбардировки, лишения, смерть близких людей. Репрессии в стране усиливаются. Свободолюбивая и бунтарская натура девочки может привести к беде, поэтому родители отправляют ее в Европу. Оказавшись в Вене, 14-летняя Марджан переживает свою вторую революцию: отрочество, свободу, опьянение любовью, — и вместе с ними острое чувство одиночества…
По книге Марджан Сатрапи.
- *8.0 *8.0Качество видео: BDRip
Контейнер: AVI
Видео кодек: XviD
Аудио кодек: AC3
Видео: 720x384 (1.85:1), 1781 kbps, 23.976 fps, 0.269 bit/pixel
Аудио #1: Rus: 192 kbps, 2 ch, 48.0 kHz
Аудио #2: Eng: 192 kbps, 2 ch, 48.0 kHz
Cубтитры: русские, английские
Общее
Полное имя : Persepolis.2007.[BDRip].avi
Формат : AVI
Формат/Информация : Audio Video Interleave
Размер файла : 1,45 Гбайт
Продолжительность : 1 ч. 35 м.
Общий поток : 2179 Кбит/сек
Программа кодирования : VirtualDubMod 1.5.10.2 (build 2540/release)
Видео
Идентификатор : 0
Формат : MPEG-4 Visual
Профиль формата : Advanced [email protected]
Параметр BVOP формата : 2
Параметр QPel формата : Нет
Параметр GMC формата : Без точки перехода
Параметр матрицы формата : Default (MPEG)
Режим смешивания : Сжатый битовый поток
Идентификатор кодека : XVID
Идентификатор кодека/Подсказка : XviD
Продолжительность : 1 ч. 35 м.
Битрейт : 1781 Кбит/сек
Ширина : 720 пикселей
Высота : 384 пикселя
Соотношение сторон : 1,85:1
Частота кадров : 23,976 кадра/сек
Цветовое пространство : YUV
Субдискретизация насыщенности : 4:2:0
Битовая глубина : 8 бит
Тип развёртки : Прогрессивная
Метод сжатия : С потерями
Бит/(Пиксели*Кадры) : 0.269
Размер потока : 1,19 Гбайт (82%)
Библиотека кодирования : XviD 1.1.2 (UTC 2006-11-01)
Аудио #1
Идентификатор : 1
Формат : AC-3
Формат/Информация : Audio Coding 3
Расширение режима : CM (complete main)
Параметр Endianness формата : Big
Идентификатор кодека : 2000
Продолжительность : 1 ч. 35 м.
Вид битрейта : Постоянный
Битрейт : 192 Кбит/сек
Каналы : 2 канала
Расположение каналов : Front: L R
Частота : 48,0 КГц
Битовая глубина : 16 бит
Метод сжатия : С потерями
Задержка видео : 1 с. 150 мс.
Размер потока : 131 Мбайт (9%)
Выравнивание : Разделение по промежуткам
Продолжительность промежутка : 42 мс. (1,00 видеокадр)
Время предзагрузки промежутка : 500 мс.
Аудио #2
Идентификатор : 2
Формат : AC-3
Формат/Информация : Audio Coding 3
Расширение режима : CM (complete main)
Параметр Endianness формата : Big
Идентификатор кодека : 2000
Продолжительность : 1 ч. 35 м.
Вид битрейта : Постоянный
Битрейт : 192 Кбит/сек
Каналы : 2 канала
Расположение каналов : Front: L R
Частота : 48,0 КГц
Битовая глубина : 16 бит
Метод сжатия : С потерями
Размер потока : 131 Мбайт (9%)
Выравнивание : Разделение по промежуткам
Продолжительность промежутка : 42 мс. (1,00 видеокадр)
Время предзагрузки промежутка : 500 мс.
Скриншоты:
Download / Скачать

Хотите скачать бесплатно? Зарегистрируйтесь на сайте (ссылка на регистрацию). Pirat.ca - самый быстрый торрент трекер в рунете!

Как скачивать  ·   Что такое торрент  ·   Рейтинг и ограничения

Пост 08-Ноя-2014 11:47 (спустя 46 минут)

Топик был перенесен из форума Мультфильмы (Трюм) в форум Зарубежные полнометражные мультфильмы
ara1205
 

hevard

Гроза морей

2109

Пост 09-Ноя-2014 14:01 (спустя 1 день 2 часа)

[Q] 

Добрый детский мультик??? ))))

_________________
-Я старый пират и не знаю слов лицензионного соглашения...
[Профиль]  [ЛС] 

AnastasWolf ®

3475

Пост 09-Ноя-2014 20:19 (спустя 6 часов)

[Q] 

hevard, некоторым людям легче воспринимать серьёзную информацию через юмористические программы или анимацию. Это их как бы не обязывает осознавать, что дело обстоит не так, как представляет себе большинство...

_________________
[Профиль]  [ЛС] 
Показать сообщения:    
Ответить на тему

Текущее время: Сегодня 01:46

Часовой пояс: GMT + 4



Вы не можете начинать темы
Вы не можете отвечать на сообщения
Вы не можете редактировать свои сообщения
Вы не можете удалять свои сообщения
Вы не можете голосовать в опросах
Вы не можете прикреплять файлы к сообщениям
Вы не можете скачивать файлы

▼ Вниз