ML
     
  Уважаемый Гость!
Вы можете поддержать проект и зарегистрироваться у наших партнеров - онлайн-стратегия MyLands. При регистрации в игре Вы получите код, который сможете активировать после регистрации на pirat.ca и получить 1000 дублонов.

Ваш код:
a01a592a88af5f9996a6d1baec61b18a1769954d
 
     

Самолеты: Огонь и вода / Planes: Fire and Rescue (Роберт Ганнавей / Robert Gannaway) [2014 г., мультфильм, комедия, приключения, семейный, BDRip-AVC] Dub (Лицензия) + Original (Eng) + Sub (Eng, Rus)

Ответить на тему
 
Автор
Сообщение

Пост 11-Ноя-2014 18:38

[Q] 

LPPI

-Самолеты: Огонь и вода / Planes: Fire and Rescue-«When others fly out, heroes fly in»- Производство: США
Год выпуска: 2014 г.
Жанр: мультфильм, комедия, приключения, семейный
Продолжительность: 01:23:38
Мировая премьера: 15 июля 2014
Российская премьера: 21 августа 2014, «WDSSPR»
Дата выхода DVD: 18 ноября 2014, «Уолт Дисней Компани СНГ»
Дата выхода Blu-Ray: 18 ноября 2014, «Уолт Дисней Компани СНГ»
Перевод: Профессиональный (полное дублирование) [Лицензия]
Оригинальный аудиопоток: английский-Режиссер: Роберт Ганнавей / Robert Gannaway
В ролях: Дейн Кук, Эд Харрис, Джули Боуэн, Кертис Армстронг, Джон Майкл Хиггинс, Хэл Холбрук, Уэс Стьюди, Брэд Гэррет, Тери Хэтчер, Стейси Кич-Описание: Самолетик Дасти, который стал уже легендой воздушных гонок, вскоре узнает, что его двигатель сильно повреждён, и он никогда не может больше участвовать в скоростных воздушных гонках. Дасти ищет себе новое занятие и знакомится с мужественной пожарно-спасательной командой, которой руководит ветеран авиации вертолёт по имени Ренждер. Узнав, насколько тяжела и опасна работа пожарной авиации, Дасти поймёт, что такое настоящий героизм и самоотдача, и сам захочет стать спасателем.- -Качество видео: BDRip-AVC
Контейнер: MKV
Видео кодек: H.264
Аудио кодек: AC3
Видео: 1024x428 (2.40:1), 2 200 Kbps, 23.976 fps, 0.209 bit/pix
Аудио: AC3, 448 Kbps, 6 ch, 48.0 KHz - Rus
Аудио #2: AC3, 448 Kbps, 6 ch, 48.0 KHz - Eng
Cубтитры: Русские (форсированные, полные), английские (full, SDH)
General
Unique ID : 173012102229587457332006211648462973513 (0x8228EB3943AD32B5A2FE61A6D06AEA49)
Complete name : D:\Samolety-Ogon'.i.voda.2014.BDRip.(AVC).mkv
Format : Matroska
Format version : Version 4 / Version 2
File size : 1.81 GiB
Duration : 1h 23mn
Overall bit rate : 3 098 Kbps
Encoded date : UTC 2014-11-11 07:13:45
Writing application : mkvmerge v6.9.1 ('Blue Panther') 64bit built on Apr 18 2014 18:23:38
Writing library : libebml v1.3.0 + libmatroska v1.4.1
Video
ID : 1
Format : AVC
Format/Info : Advanced Video Codec
Format profile : [email protected]
Format settings, CABAC : Yes
Format settings, ReFrames : 10 frames
Codec ID : V_MPEG4/ISO/AVC
Duration : 1h 23mn
Bit rate : 2 200 Kbps
Width : 1 024 pixels
Height : 428 pixels
Display aspect ratio : 2.40:1
Frame rate mode : Constant
Frame rate : 23.976 fps
Color space : YUV
Chroma subsampling : 4:2:0
Bit depth : 8 bits
Scan type : Progressive
Bits/(Pixel*Frame) : 0.209
Stream size : 1.25 GiB (69%)
Writing library : x264 core 142 r2431+42 c69a006 tMod [[email protected]:2:0 X86_64]
Encoding settings : cabac=1 / ref=10 / deblock=1:-3:-3 / analyse=0x3:0x113 / me=umh / subme=11 / psy=1 / fade_compensate=0.00 / psy_rd=1.00:0.00 / mixed_ref=1 / me_range=32 / chroma_me=1 / trellis=2 / 8x8dct=1 / cqm=0 / deadzone=21,11 / fast_pskip=0 / chroma_qp_offset=-2 / threads=12 / lookahead_threads=3 / sliced_threads=0 / nr=0 / decimate=0 / interlaced=0 / bluray_compat=0 / constrained_intra=0 / fgo=0 / bframes=14 / b_pyramid=2 / b_adapt=2 / b_bias=0 / direct=3 / weightb=1 / open_gop=0 / weightp=2 / keyint=240 / keyint_min=23 / scenecut=40 / intra_refresh=0 / rc_lookahead=40 / rc=2pass / mbtree=1 / bitrate=2200 / ratetol=1.0 / qcomp=0.60 / qpmin=0:0:0 / qpmax=69:69:69 / qpstep=4 / cplxblur=20.0 / qblur=0.5 / ip_ratio=1.40 / aq=4:0.80 / aq-sensitivity=10.00 / aq-factor=1.00:1.00:1.00 / aq2=0 / aq3=0
Default : Yes
Forced : No
Audio #1
ID : 2
Format : AC-3
Format/Info : Audio Coding 3
Mode extension : CM (complete main)
Format settings, Endianness : Big
Codec ID : A_AC3
Duration : 1h 23mn
Bit rate mode : Constant
Bit rate : 448 Kbps
Channel(s) : 6 channels
Channel positions : Front: L C R, Side: L R, LFE
Sampling rate : 48.0 KHz
Bit depth : 16 bits
Compression mode : Lossy
Stream size : 268 MiB (14%)
Title : Dub
Language : Russian
Default : Yes
Forced : No
Audio #2
ID : 3
Format : AC-3
Format/Info : Audio Coding 3
Mode extension : CM (complete main)
Format settings, Endianness : Big
Codec ID : A_AC3
Duration : 1h 23mn
Bit rate mode : Constant
Bit rate : 448 Kbps
Channel(s) : 6 channels
Channel positions : Front: L C R, Side: L R, LFE
Sampling rate : 48.0 KHz
Bit depth : 16 bits
Compression mode : Lossy
Stream size : 268 MiB (14%)
Language : English
Default : No
Forced : No
Text #1
ID : 4
Format : UTF-8
Codec ID : S_TEXT/UTF8
Codec ID/Info : UTF-8 Plain Text
Title : Forced
Language : Russian
Default : Yes
Forced : No
Text #2
ID : 5
Format : UTF-8
Codec ID : S_TEXT/UTF8
Codec ID/Info : UTF-8 Plain Text
Title : Full
Language : Russian
Default : No
Forced : No
Text #3
ID : 6
Format : UTF-8
Codec ID : S_TEXT/UTF8
Codec ID/Info : UTF-8 Plain Text
Title : Full
Language : English
Default : No
Forced : No
Text #4
ID : 7
Format : UTF-8
Codec ID : S_TEXT/UTF8
Codec ID/Info : UTF-8 Plain Text
Title : SDH
Language : English
Default : No
Forced : No
Menu
00:00:00.000 : en:Chapter 01
00:03:27.788 : en:Chapter 02
00:07:48.593 : en:Chapter 03
00:12:36.004 : en:Chapter 04
00:17:38.848 : en:Chapter 05
00:22:55.164 : en:Chapter 06
00:27:45.288 : en:Chapter 07
00:32:37.204 : en:Chapter 08
00:35:24.788 : en:Chapter 09
00:38:31.015 : en:Chapter 10
00:41:38.286 : en:Chapter 11
00:47:21.045 : en:Chapter 12
00:55:00.712 : en:Chapter 13
00:57:29.027 : en:Chapter 14
01:00:33.880 : en:Chapter 15
01:05:22.710 : en:Chapter 16
01:09:07.685 : en:Chapter 17
01:13:55.264 : en:Chapter 18
Download / Скачать

Хотите скачать бесплатно? Зарегистрируйтесь на сайте (ссылка на регистрацию). Pirat.ca - самый быстрый торрент трекер в рунете!

Как скачивать  ·   Что такое торрент  ·   Рейтинг и ограничения

kisu

Гроза морей

Пост 11-Ноя-2014 18:45 (спустя 7 минут)

[Q] 

спасибо!!!большое!!!
[Профиль]  [ЛС] 

Танюха10988

Гроза морей

Пост 12-Ноя-2014 23:46 (спустя 1 день 5 часов)

[Q] 

Спасибо за раздачу
[Профиль]  [ЛС] 

RozM

Морской Волк

Пост 13-Ноя-2014 18:45 (спустя 18 часов)

[Q] 

Спасибо. Будет чем мелкого занять на неделю)
[Профиль]  [ЛС] 

Showman

Корсар

Пост 14-Ноя-2014 17:07 (спустя 22 часа)

[Q] 

Спасибо! Лови бочку
[Профиль]  [ЛС] 

Vintorezov REG 39

Легенда

176

Пост 15-Ноя-2014 14:32 (спустя 21 час)

[Q] 

Отличный мультик Лови бочку
[Профиль]  [ЛС] 

Hanz757

Канонир

1

Пост 18-Мар-2015 23:26 (спустя 4 месяца 3 дня)

[Q] 

Спасибо большое!
[Профиль]  [ЛС] 

pavel091991

Пост 19-Мар-2015 00:51 (спустя 1 час 24 минуты)

[Q] 

удалено модератором
!erchine писал(а):

Всем пиратам на нашем корабле запрещается:
...
2.6 Писать рекламные тексты и сообщения коммерческого характера и вообще в любом виде Заниматься коммерцией на форуме.
[Профиль]  [ЛС] 

denmenen

Шкипер

Пост 04-Май-2015 21:03 (спустя 1 месяц 16 дней)

[Q] 

хороший мультик!!!

_________________
Только дурак будет доказывать дураку, что тот дурак...
[Профиль]  [ЛС] 
Показать сообщения:    
Ответить на тему

Текущее время: Сегодня 09:51

Часовой пояс: GMT + 4



Вы не можете начинать темы
Вы не можете отвечать на сообщения
Вы не можете редактировать свои сообщения
Вы не можете удалять свои сообщения
Вы не можете голосовать в опросах
Вы не можете прикреплять файлы к сообщениям
Вы не можете скачивать файлы

▼ Вниз