ML
     
  Уважаемый Гость!
Вы можете поддержать проект и зарегистрироваться у наших партнеров - онлайн-стратегия MyLands. При регистрации в игре Вы получите код, который сможете активировать после регистрации на pirat.ca и получить 1000 дублонов.

Ваш код:
ca44e9295b9b8527ba1c339c20494f70782efea6
 
     

Гнездо дракона / Dragon Nest: Warriors' Dawn (Юуефенг Сонг / Yuefeng Song) [2014 г., фэнтези, приключения, семейный, WEB-Rip] MVO

Ответить на тему
 
Автор
Сообщение

Пост 13-Ноя-2014 20:49

[Q] 

Dragon-Age1993

Шкипер

-Гнездо дракона / Dragon Nest: Warriors' Dawn- Производство: США, Китай, Франция
Жанр: фэнтези, приключения, семейный
Год выпуска: 2014 г.
Продолжительность: 01:30:01
Мировая премьера: 31 июля 2014
Российская премьера: 26 февраля 2015-Режиссер: Юуефенг Сонг / Yuefeng Song
Сценарий: Ран Чжуо, Yuefeng Song, Yuefeng Zhong
Продюсеры: Билл Борден, Майкл Ицзюнь Ванг, Джек Чжан
Композитор: Эдриан Ли
Художник: Грант Мейджор-Перевод: Любительский (многоголосый, закадровый) [R.G. TheAngelOfDeath&SweetySacrifice]
Роли озвучивали: Блайт Оффарт, Бьянка Коллинз, Саймон Джэглом...-Описание: История путешествия молодого воина, желающего найти и уничтожить легендарного Черного дракона, который поверг его мир во тьму.-IMDB-КиноПоиск-Качество видео: WEB-Rip
Контейнер: AVI
Видео кодек: XviD
Аудио кодек: AC3
Видео: 720x400 (2.35:1), 23.976 fps, XviD build 65 ~ 1973 kbps avg, 0.291 bit/pixel
Аудио: 48.00 kHz, AC3 Dolby Digital, 2/0 (L,R) ch, ~192.00 kbps avg
Cубтитры: китайские (вшитые)
Код:
Общее
Формат                                   : AVI
Формат/Информация                        : Audio Video Interleave
Размер файла                             : 1,37 Гбайт
Продолжительность                        : 1 ч. 30 м.
Общий поток                              : 2174 Кбит/сек
Программа кодирования                    : VirtualDubMod 1.5.10.2 (build 2540/release)
Библиотека кодирования                   : VirtualDubMod build 2540/release
Видео
Идентификатор                            : 0
Формат                                   : MPEG-4 Visual
Профиль формата                          : Advanced [email protected]
Параметр BVOP формата                    : 2
Параметр QPel формата                    : Нет
Параметр GMC формата                     : Без точки перехода
Параметр матрицы формата                 : Default (MPEG)
Идентификатор кодека                     : XVID
Идентификатор кодека/Подсказка           : XviD
Продолжительность                        : 1 ч. 30 м.
Битрейт                                  : 1973 Кбит/сек
Ширина                                   : 720 пикселей
Высота                                   : 400 пикселей
Соотношение сторон                       : 16:9
Частота кадров                           : 24,000 кадра/сек
Цветовое пространство                    : YUV
Субдискретизация насыщенности            : 4:2:0
Битовая глубина                          : 8 бит
Тип развёртки                            : Прогрессивная
Бит/(Пиксели*Кадры)                      : 0.285
Размер потока                            : 1,24 Гбайт (91%)
Библиотека кодирования                   : XviD 1.2.1 (UTC 2008-12-04)
Аудио
Идентификатор                            : 1
Формат                                   : AC-3
Формат/Информация                        : Audio Coding 3
Расширение режима                        : CM (complete main)
Параметр Endianness формата              : Big
Идентификатор кодека                     : 2000
Продолжительность                        : 1 ч. 30 м.
Вид битрейта                             : Постоянный
Битрейт                                  : 192 Кбит/сек
Каналы                                   : 2 канала
Расположение каналов                     : Front: L R
Частота                                  : 44,1 КГц
Битовая глубина                          : 16 бит
Задержка видео                           : 28 мс.
Размер потока                            : 124 Мбайт (9%)
Выравнивание                             : Разделение по промежуткам
Продолжительность промежутка             : 42  мс. (1,00 видеокадр)
Время предзагрузки промежутка            : 500  мс.
Download / Скачать

Хотите скачать бесплатно? Зарегистрируйтесь на сайте (ссылка на регистрацию). Pirat.ca - самый быстрый торрент трекер в рунете!

Как скачивать  ·   Что такое торрент  ·   Рейтинг и ограничения



Последний раз редактировалось: Dragon-Age1993 (2014-11-14 18:56), всего редактировалось 1 раз

Пост 14-Ноя-2014 23:46 (спустя 1 день 2 часа)

Топик был перенесен из форума Мультфильмы (Трюм) в форум Зарубежные полнометражные мультфильмы
Андря
 

rayven

Морской Волк

Пост 25-Дек-2014 21:32 (спустя 1 месяц 12 дней)

[Q] 

качаю, как то пропустил сей мульт.
[Профиль]  [ЛС] 

igormogilev

Флибустьер

5109

Пост 25-Дек-2014 23:05 (спустя 1 час 33 минуты)

[Q] 

Нормальный мульт. Спасибо!!!
[Профиль]  [ЛС] 

Antarres

Легенда

Пост 25-Янв-2015 12:18 (спустя 30 дней)

[Q] 

Thanks!

_________________
[Профиль]  [ЛС] 

FRIDRIH

Пост 28-Янв-2015 12:45 (спустя 3 дня)

[Q] 

Лови бочку
буду брать!
Лови ром!
[Профиль]  [ЛС] 

SHERHAN

683

Пост 28-Янв-2015 12:50 (спустя 4 минуты)

[Q] 

прощай Беззубик))))

_________________
Рыжий хищник, полосатый,
В меру наглый и усатый,
Днём и ночью он не спит,
Зорко в монитор глядит!
[Профиль]  [ЛС] 
Показать сообщения:    
Ответить на тему

Текущее время: Сегодня 16:17

Часовой пояс: GMT + 4



Вы не можете начинать темы
Вы не можете отвечать на сообщения
Вы не можете редактировать свои сообщения
Вы не можете удалять свои сообщения
Вы не можете голосовать в опросах
Вы не можете прикреплять файлы к сообщениям
Вы не можете скачивать файлы

▼ Вниз