ML
     
  Уважаемый Гость!
Вы можете поддержать проект и зарегистрироваться у наших партнеров - онлайн-стратегия MyLands. При регистрации в игре Вы получите код, который сможете активировать после регистрации на pirat.ca и получить 1000 дублонов.

Ваш код:
73640f24f8a0f579e128ea7346fd2db2b1009143
 
     

Махни крылом / Yellowbird (Кристиан Де Вита / Christian De Vita) [2014 г., Мультфильм, Семейный, DVDRip] Dub [Лицензия]

Ответить на тему
 
Автор
Сообщение

Пост 18-Дек-2014 12:49

[Q] 

Васис

Корсар

-Махни крылом / Yellowbird-- Производство: Франция, Compagnie Cinmatographique, La, Haut et Court, Panache Productions
Год выпуска: 2014 г.
Жанр: Мультфильм, Семейный
Продолжительность: 01:26:16
Перевод: Профессиональный (полное дублирование) [Лицензия]
Режиссер: Кристиан Де Вита / Christian De Vita-В ролях: Сет Грин, Иветт Николь Браун, Джим Рэш, Дакота Фаннинг, Кристин Барански, Брэйди Корбет, Артур Дюпон, Сара Форестье, Дэнни Гловер, Захари Гордан, Эллиотт Гулд, Пьер Ришар-Описание: Каждый год, все птицы улетают на юг. Должна улететь и стая нашего юного героя Чижика, но в последний момент перед перелетом на вожака стаи Дариуса нападает злой кот. Только Дариус знает дорогу на юг, и он успевает передать секрет Чижику, который теперь должен стать вожаком стаи. У Чижика нет опыта таких дальних перелетов, и тем более, опыта лидерства в стае, но ему не остается ничего, кроме как быстро учиться.-
Качество видео: DVDRip
Контейнер: AVI
Видео кодек: DivX
Аудио кодек: AC3
Видео: 720x400, 1966 Кбит/сек, 25,000 кадров/сек, 0.273 bit/pixel
Аудио: 448 Кбит/сек, 6 каналов, 48,0 КГц
Cубтитры: отсутствуют
Общее
Полное имя : D:\Torrent\Mahni.krylom.2014.DVDRip.avi
Формат : AVI
Формат/Информация : Audio Video Interleave
Размер файла : 1,46 Гбайт
Продолжительность : 1 ч. 26 м.
Общий поток : 2424 Кбит/сек
Программа кодирования : VirtualDubMod 1.5.10.2 (build 2540/release)
Библиотека кодирования : VirtualDubMod build 2540/release
Видео
Идентификатор : 0
Формат : MPEG-4 Visual
Профиль формата : Advanced [email protected]
Параметр BVOP формата : 2
Параметр QPel формата : Нет
Параметр GMC формата : Без точки перехода
Параметр матрицы формата : Default (MPEG)
Идентификатор кодека : XVID
Идентификатор кодека/Подсказка : XviD
Продолжительность : 1 ч. 26 м.
Битрейт : 1966 Кбит/сек
Ширина : 720 пикселей
Высота : 400 пикселей
Соотношение сторон : 16:9
Частота кадров : 25,000 кадров/сек
Цветовое пространство : YUV
Субдискретизация насыщенности : 4:2:0
Битовая глубина : 8 бит
Тип развёртки : Прогрессивная
Метод сжатия : С потерями
Бит/(Пиксели*Кадры) : 0.273
Размер потока : 1,18 Гбайт (81%)
Библиотека кодирования : XviD 1.2.1 (UTC 2008-12-04)
Аудио
Идентификатор : 1
Формат : AC-3
Формат/Информация : Audio Coding 3
Расширение режима : CM (complete main)
Параметр Endianness формата : Big
Идентификатор кодека : 2000
Продолжительность : 1 ч. 26 м.
Вид битрейта : Постоянный
Битрейт : 448 Кбит/сек
Каналы : 6 каналов
Расположение каналов : Front: L C R, Side: L R, LFE
Частота : 48,0 КГц
Битовая глубина : 16 бит
Метод сжатия : С потерями
Размер потока : 276 Мбайт (18%)
Выравнивание : Разделение по промежуткам
Продолжительность промежутка : 40 мс. (1,00 видеокадр)
Время предзагрузки промежутка : 500 мс.
Download / Скачать

Хотите скачать бесплатно? Зарегистрируйтесь на сайте (ссылка на регистрацию). Pirat.ca - самый быстрый торрент трекер в рунете!

Как скачивать  ·   Что такое торрент  ·   Рейтинг и ограничения

Пост 18-Дек-2014 14:20 (спустя 1 час 30 минут)

Топик был перенесен из форума Зарубежное Кино (Трюм) в форум Новинки (HD|DVD|BD| TV|SAT|PDTV| - Rips)
ara1205
 

diman3737

Пост 18-Дек-2014 16:47 (спустя 3 часа)

[Q] 

Спасибо за мульт! Всем качать!!!
[Профиль]  [ЛС] 

svat74

Корсар

Пост 18-Дек-2014 18:20 (спустя 1 час 33 минуты)

[Q] 

качну для мелкой Раздающему респект!
[Профиль]  [ЛС] 

Vintorezov REG 39

Легенда

176

Пост 18-Дек-2014 18:25 (спустя 5 минут)

[Q] 

........ Спасибо!!! .........
[Профиль]  [ЛС] 

De Puta Madre

Морской Волк

Пост 18-Дек-2014 18:48 (спустя 22 минуты)

[Q] 

Лови бочку оперативно!
[Профиль]  [ЛС] 

Alexlogin

Гроза морей

105

Пост 18-Дек-2014 19:48 (спустя 1 час)

[Q] 

Спасибо доча обрадуется
[Профиль]  [ЛС] 

гришасемечкин

Корсар

1171

Пост 18-Дек-2014 19:53 (спустя 5 минут)

[Q] 

Качаю.... .....ОК! Лови бочку
[Профиль]  [ЛС] 

Vadim33_

Штурман

Пост 18-Дек-2014 20:12 (спустя 18 минут)

[Q] 

Спасибо!!!
[Профиль]  [ЛС] 

bolin

Флибустьер

Пост 18-Дек-2014 20:53 (спустя 40 минут)

[Q] 

Забираю своим мальчикам! Лови бочку
[Профиль]  [ЛС] 

Lana38

Корсар

Пост 18-Дек-2014 21:30 (спустя 37 минут)

[Q] 

Забираю себе)) Лови бочку
[Профиль]  [ЛС] 

Naylo

Морской Волк

Пост 18-Дек-2014 23:15 (спустя 1 час 45 минут)

[Q] 

посмотрим может кому из домачатйев и понравиться

_________________
[Профиль]  [ЛС] 

shayhi79

Морской Волк

Пост 19-Дек-2014 00:22 (спустя 1 час 6 минут)

[Q] 

Спасибо!!!
[Профиль]  [ЛС] 

Innesa

Шкипер

Пост 20-Дек-2014 15:59 (спустя 1 день 15 часов)

[Q] 

Малому 7 лет понравилось, автору релиза огромное Спасибо!!! Лови бочку
[Профиль]  [ЛС] 

Jek@

Легенда

Пост 21-Дек-2014 14:50 (спустя 22 часа)

[Q] 

Спасибо!!! .
[Профиль]  [ЛС] 

srg078rus

Корсар

97

Пост 21-Дек-2014 16:07 (спустя 1 час 17 минут)

[Q] 

Спасибо!!! Лови бочку

_________________
[Профиль]  [ЛС] 

xayliod

Штурман

Пост 21-Дек-2014 18:34 (спустя 2 часа 26 минут)

[Q] 

Описание интересное, думаю мульт соответствует заявленному. Качаем, смотрим.
[Профиль]  [ЛС] 

Kung-fu Cat

Морской Волк

Пост 22-Дек-2014 14:41 (спустя 20 часов)

[Q] 

Эх, жаль, ничего интересного. Мульт на любителя.

_________________
[Профиль]  [ЛС] 

Showman

Корсар

Пост 22-Дек-2014 19:52 (спустя 5 часов)

[Q] 

Супер! Спасибо!!! Лови бочку
[Профиль]  [ЛС] 

Uniqumoon

Канонир

Пост 25-Дек-2014 02:08 (спустя 2 дня 6 часов)

[Q] 

Очень занимательное семейное зрелище Спасибо!!!
[Профиль]  [ЛС] 

bolikgeko

Гроза морей

211

Пост 31-Дек-2014 09:02 (спустя 6 дней)

[Q] 

вери мач Лови бочку
[Профиль]  [ЛС] 

простой

Штурман

Пост 27-Мар-2015 16:32 (спустя 2 месяца 27 дней)

[Q] 

Для внуков! Спасибо! Спасибо!!!
[Профиль]  [ЛС] 
Показать сообщения:    
Ответить на тему

Текущее время: Сегодня 22:37

Часовой пояс: GMT + 4



Вы не можете начинать темы
Вы не можете отвечать на сообщения
Вы не можете редактировать свои сообщения
Вы не можете удалять свои сообщения
Вы не можете голосовать в опросах
Вы не можете прикреплять файлы к сообщениям
Вы не можете скачивать файлы

▼ Вниз