ML
     
  Уважаемый Гость!
Вы можете поддержать проект и зарегистрироваться у наших партнеров - онлайн-стратегия MyLands. При регистрации в игре Вы получите код, который сможете активировать после регистрации на pirat.ca и получить 1000 дублонов.

Ваш код:
b70663c760e7cd2521b8e123786cdd788200e3bd
 
     

Махни крылом / Yellowbird (Кристиан Де Вита / Christian De Vita) [2014 г., мультфильм, семейный, DVDRip-AVC] Dub (Лицензия)

Ответить на тему
 
Автор
Сообщение

Пост 21-Дек-2014 23:44

[Q] 

LPPI

-Махни крылом / Yellowbird- Производство: Франция / Compagnie Cinématographique, La, Haut et Court, Panache Productions, TeamTO
Год выпуска: 2014 г.
Жанр: мультфильм, семейный
Продолжительность: 01:26:16
Мировая премьера: 11 октября 2014
Российская премьера: 6 ноября 2014, «Наше Кино»
Дата выхода DVD: 16 декабря 2014, «CD Land»
Перевод: Профессиональный (полное дублирование) [Лицензия]-Режиссер: Кристиан Де Вита / Christian De Vita
В ролях: Сет Грин, Иветт Николь Браун, Джим Рэш, Дакота Фэннинг, Кристин Барански, Натали Бутфо, Брэйди Корбет, Артур Дюпон, Сара Форестье, Дэнни Гловер-Описание: Каждый год, все птицы улетают на юг. Должна улететь и стая нашего юного героя Чижика, но в последний момент перед перелетом на вожака стаи Дариуса нападает злой кот. Только Дариус знает дорогу на юг, и он успевает передать секрет Чижику, который теперь должен стать вожаком стаи. У Чижика нет опыта таких дальних перелетов, и тем более, опыта лидерства в стае, но ему не остается ничего, кроме как быстро учиться.- -Качество видео: DVDRip-AVC
Контейнер: MKV
Видео кодек: H.264
Аудио кодек: AC3
Видео: 720x576 (16:9), 1 971 Kbps, 25 fps, 0.190 bit/pix
Аудио: 448 Kbps, 6 ch, 48.0 KHz
Cубтитры: отсутствуют
General
Unique ID : 191905838535696830045818490817644109606 (0x905FB858124C209D826FD79A2CEC9F26)
Complete name : D:\Yellowbird.2014.DVDRip.(AVC).mkv
Format : Matroska
Format version : Version 4 / Version 2
File size : 1.46 GiB
Duration : 1h 26mn
Overall bit rate : 2 421 Kbps
Encoded date : UTC 2014-12-18 07:17:47
Writing application : mkvmerge v6.9.1 ('Blue Panther') 64bit built on Apr 18 2014 18:23:38
Writing library : libebml v1.3.0 + libmatroska v1.4.1
Video
ID : 1
Format : AVC
Format/Info : Advanced Video Codec
Format profile : [email protected]
Format settings, CABAC : Yes
Format settings, ReFrames : 10 frames
Codec ID : V_MPEG4/ISO/AVC
Duration : 1h 26mn
Bit rate : 1 971 Kbps
Width : 720 pixels
Height : 576 pixels
Display aspect ratio : 16:9
Frame rate mode : Constant
Frame rate : 25.000 fps
Standard : PAL
Color space : YUV
Chroma subsampling : 4:2:0
Bit depth : 8 bits
Scan type : Progressive
Bits/(Pixel*Frame) : 0.190
Stream size : 1.16 GiB (80%)
Writing library : x264 core 142 r2431+42 c69a006 tMod [[email protected]:2:0 X86_64]
Encoding settings : cabac=1 / ref=10 / deblock=1:-3:-3 / analyse=0x3:0x113 / me=umh / subme=10 / psy=1 / fade_compensate=0.00 / psy_rd=1.00:0.20 / mixed_ref=1 / me_range=32 / chroma_me=1 / trellis=2 / 8x8dct=1 / cqm=0 / deadzone=21,11 / fast_pskip=0 / chroma_qp_offset=-3 / threads=12 / lookahead_threads=3 / sliced_threads=0 / nr=0 / decimate=0 / interlaced=0 / bluray_compat=0 / constrained_intra=0 / fgo=0 / bframes=14 / b_pyramid=2 / b_adapt=2 / b_bias=0 / direct=3 / weightb=1 / open_gop=0 / weightp=2 / keyint=250 / keyint_min=25 / scenecut=40 / intra_refresh=0 / rc_lookahead=40 / rc=2pass / mbtree=1 / bitrate=1971 / ratetol=1.0 / qcomp=0.60 / qpmin=0:0:0 / qpmax=69:69:69 / qpstep=4 / cplxblur=20.0 / qblur=0.5 / ip_ratio=1.40 / aq=4:0.80 / aq-sensitivity=10.00 / aq-factor=1.00:1.00:1.00 / aq2=0 / aq3=0
Default : Yes
Forced : No
Audio
ID : 2
Format : AC-3
Format/Info : Audio Coding 3
Mode extension : CM (complete main)
Format settings, Endianness : Big
Codec ID : A_AC3
Duration : 1h 26mn
Bit rate mode : Constant
Bit rate : 448 Kbps
Channel(s) : 6 channels
Channel positions : Front: L C R, Side: L R, LFE
Sampling rate : 48.0 KHz
Bit depth : 16 bits
Compression mode : Lossy
Stream size : 276 MiB (19%)
Title : Dub
Language : Russian
Default : Yes
Forced : No
Menu
00:00:00.000 : en:Chapter 01
00:10:12.800 : en:Chapter 02
00:19:47.320 : en:Chapter 03
00:29:48.280 : en:Chapter 04
00:39:05.680 : en:Chapter 05
00:49:12.080 : en:Chapter 06
01:00:09.480 : en:Chapter 07
01:13:00.800 : en:Chapter 08
Download / Скачать

Хотите скачать бесплатно? Зарегистрируйтесь на сайте (ссылка на регистрацию). Pirat.ca - самый быстрый торрент трекер в рунете!

Как скачивать  ·   Что такое торрент  ·   Рейтинг и ограничения

Antarres

Легенда

Пост 22-Дек-2014 09:07 (спустя 9 часов)

[Q] 

Thanks !

_________________
[Профиль]  [ЛС] 

Wolf111

57066

Пост 22-Дек-2014 19:08 (спустя 10 часов)

[Q] 

На любителя Автору респект!!!
[Профиль]  [ЛС] 

zdimir

Морской Волк

Пост 23-Дек-2014 07:53 (спустя 12 часов)

[Q] 

Спасибо Автору!
[Профиль]  [ЛС] 

Golsergio

Флибустьер

Пост 23-Дек-2014 11:09 (спустя 3 часа)

[Q] 

как, стоит тратить время на просмотр?
[Профиль]  [ЛС] 

Urlhtml

Корсар

Пост 24-Дек-2014 23:13 (спустя 1 день 12 часов)

[Q] 

Автору респект!!! Лови бочку
[Профиль]  [ЛС] 

olipov

Легенда

Пост 02-Янв-2015 16:09 (спустя 8 дней)

[Q] 

Раздающему респект!
[Профиль]  [ЛС] 

Naylo

Морской Волк

Пост 02-Янв-2015 16:50 (спустя 41 минута)

[Q] 

ну что сольем и там посмотрим стоит или нет!

_________________
[Профиль]  [ЛС] 

mich76

Шкипер

Пост 11-Янв-2015 23:41 (спустя 9 дней)

[Q] 

нормальный мульт.
[Профиль]  [ЛС] 

SonicSlash

Флибустьер

Пост 11-Янв-2015 23:43 (спустя 1 минута)

[Q] 

Ок заберем дитю))

_________________
[Профиль]  [ЛС] 

ALEHAN

Легенда

Пост 06-Фев-2015 19:06 (спустя 25 дней)

[Q] 

Категорически детский мульт. Взрослой психике тяжело воспринимать, все время перед глазами телепузики прыгали)))
[Профиль]  [ЛС] 
Показать сообщения:    
Ответить на тему

Текущее время: Сегодня 00:23

Часовой пояс: GMT + 4



Вы не можете начинать темы
Вы не можете отвечать на сообщения
Вы не можете редактировать свои сообщения
Вы не можете удалять свои сообщения
Вы не можете голосовать в опросах
Вы не можете прикреплять файлы к сообщениям
Вы не можете скачивать файлы

▼ Вниз