ML
     
  Уважаемый Гость!
Вы можете поддержать проект и зарегистрироваться у наших партнеров - онлайн-стратегия MyLands. При регистрации в игре Вы получите код, который сможете активировать после регистрации на pirat.ca и получить 1000 дублонов.

Ваш код:
b70663c760e7cd2521b8e123786cdd788200e3bd
 
     

Гномы и тролли / Gnomes and Trolls: The Secret Chamber (Robert Rhodin) [2008 г., мультфильм, фэнтези, семейный, DVDRip] MVO

Ответить на тему
 
Автор
Сообщение

Пост 20-Янв-2012 18:31

[Q] 

Ksandr

Флибустьер

Гномы и тролли / Gnomes and Trolls: The Secret Chamber
Год выпуска: 2008
Мировая премьера: 31 января 2008
Дата выхода DVD: 6 ноября 2008
Производство: Швеция
Жанр: мультфильм, фэнтези, семейный
Продолжительность: 01:15:37
Перевод: Профессиональный (многоголосый, закадровый)
Субтитры: отсутствуют
Режиссер: Роберт Родин / Robert Rhodin
В ролях
Элизабет Дэйли, Грег Берг, Джеймс Арнольд Тейлор, Андре Соглиуззо, Джо Каппеллетти, Ллойд Шерр, Кейт Хиггинс, Ким Хой, Ганс Альфредсон, Dogge Doggelito
Описание
Удивительная история о приключениях маленького гнома Джуниора, который только и мечтал, что возиться в лаборатории механизмов. Но его строгий отец мечтал, что Джуниор пойдет по его стопам и когда-нибудь займет его место главы леса. И вот однажды Джуниору пришлось вылезти из своей лаборатории и помочь отцу спасти секретную кладовую гномов от нашествия злобных троллей…
Источник/Качество: DVDRip
Формат: AVI
Видео кодек: XviD
Аудио кодек: AC3
Видео: 704x384, ~2130 kbps, 25,000 fps
Аудио: 6ch, 448 kbps, 48,0 КГц
Общее
Полное имя : Gnomes and Trolls The Secret Chamber[pirat.ca].avi
Формат : AVI
Формат/Информация : Audio Video Interleave
Размер файла : 1,37 Гбайт
Продолжительность : 1 ч. 15 м.
Общий поток : 2588 Кбит/сек
Программа кодирования : VirtualDubMod 1.5.10.2 (build 2540/release)
Библиотека кодирования : VirtualDubMod build 2540/release
Видео
Идентификатор : 0
Формат : MPEG-4 Visual
Профиль формата : Advanced [email protected]
Параметр BVOP формата : 2
Параметр QPel формата : Нет
Параметр GMC формата : Без точки перехода
Параметр матрицы формата : Default (MPEG)
Режим смешивания : Сжатый битовый поток
Идентификатор кодека : XVID
Идентификатор кодека/Подсказка : XviD
Продолжительность : 1 ч. 15 м.
Битрейт : 2130 Кбит/сек
Ширина : 704 пикселя
Высота : 384 пикселя
Соотношение сторон : 16:9
Частота кадров : 25,000 кадров/сек
Цветовое пространство : YUV
Субдискретизация насыщенности : 4:2:0
Битовая глубина : 8 бит
Тип развёртки : Прогрессивная
Метод сжатия : С потерями
Бит/(Пиксели*Кадры) : 0.315
Размер потока : 1,13 Гбайт (82%)
Библиотека кодирования : XviD 1.2.0.dev47 (UTC 2006-11-01)
Аудио
Идентификатор : 1
Формат : AC-3
Формат/Информация : Audio Coding 3
Расширение режима : CM (complete main)
Идентификатор кодека : 2000
Продолжительность : 1 ч. 15 м.
Вид битрейта : Постоянный
Битрейт : 448 Кбит/сек
Каналы : 6 каналов
Расположение каналов : Front: L C R, Side: L R, LFE
Частота : 48,0 КГц
Битовая глубина : 16 бит
Метод сжатия : С потерями
Размер потока : 242 Мбайт (17%)
Выравнивание : Разделение по промежуткам
Продолжительность промежутка : 40 мс. (1,00 видеокадр)
Время предзагрузки промежутка : 500 мс.
Download / Скачать

Хотите скачать бесплатно? Зарегистрируйтесь на сайте (ссылка на регистрацию). Pirat.ca - самый быстрый торрент трекер в рунете!

Как скачивать  ·   Что такое торрент  ·   Рейтинг и ограничения

Пост 20-Янв-2012 20:18 (спустя 1 час 47 минут)

Топик был перенесен из форума Мультипликация в форум Зарубежные полнометражные мультфильмы

CaptRom
 

berezeca

Корсар

Пост 20-Янв-2012 20:31 (спустя 2 часа)

[Q] 

спасибо
[Профиль]  [ЛС] 

manu

Пост 14-Ноя-2013 19:12 (спустя 1 год 9 месяцев)

[Q] 

Постою на раздаче. Вы лучшие! Ну ты юморист...
[Профиль]  [ЛС] 
Показать сообщения:    
Ответить на тему

Текущее время: Сегодня 00:23

Часовой пояс: GMT + 4



Вы не можете начинать темы
Вы не можете отвечать на сообщения
Вы не можете редактировать свои сообщения
Вы не можете удалять свои сообщения
Вы не можете голосовать в опросах
Вы не можете прикреплять файлы к сообщениям
Вы не можете скачивать файлы

▼ Вниз