ML
     
  Уважаемый Гость!
Вы можете поддержать проект и зарегистрироваться у наших партнеров - онлайн-стратегия MyLands. При регистрации в игре Вы получите код, который сможете активировать после регистрации на pirat.ca и получить 1000 дублонов.

Ваш код:
cc3be08b7507661c03e0a2f582d0da3a659ea55a
 
     

Пчёлка Майя / Maya The Bee – Movie (Алекс Стадерманн / Alexs Stadermann) [2014 г., мультфильм, фэнтези, приключения, HDRip] Dub (iTunes)

Ответить на тему
 
Автор
Сообщение

Пост 08-Янв-2015 21:30

[Q] 

LPPI

-Пчёлка Майя / Maya The Bee – Movie- Производство: Австралия, Германия
Год выпуска: 2014 г.
Жанр: мультфильм, фэнтези, приключения
Продолжительность: 01:28:10
Мировая премьера: 4 сентября 2014
Российская премьера: 30 октября 2014, «UPI»
Дата выхода DVD: 22 января 2015, «CP Дистрибуция»
Дата выхода Blu-Ray: 12 марта 2015, «CP Дистрибуция»
Перевод: Профессиональный (полное дублирование) [iTunes]-Режиссер: Алекс Стадерманн / Alexs Stadermann
В ролях: Нина Шаттон, Коди Смит-МакФи, Ноа Тейлор, Джеки Уивер, Ричард Роксбург, Мириам Маргулис, Джастин Кларк, Энди МакФи, Косма Шива Хаген, Коко Джек Гиллис-Описание: Легендарная пчелка доросла до большого экрана.- -Качество видео: HDRip
Контейнер: AVI
Видео кодек: XviD
Аудио кодек: AC3
Видео: 720x384 (1.88:1), 23.976 fps, XviD build 50 ~1825 kbps avg, 0.28 bit/pixel
Аудио: 48 kHz, AC3 Dolby Digital, 3/2 (L,C,R,l,r) + LFE ch, ~384 kbps
Cубтитры: отсутствуют
General
Complete name : D:\P4elka.M4ya.2014.D.HDRip.1400Mb.avi
Format : AVI
Format/Info : Audio Video Interleave
File size : 1.37 GiB
Duration : 1h 28mn
Overall bit rate : 2 219 Kbps
Writing application : VirtualDubMod 1.5.10.2 (build 2540/release)
Writing library : VirtualDubMod build 2540/release
Video
ID : 0
Format : MPEG-4 Visual
Format profile : Advanced [email protected]
Format settings, BVOP : 2
Format settings, QPel : No
Format settings, GMC : No warppoints
Format settings, Matrix : Default (MPEG)
Codec ID : XVID
Codec ID/Hint : XviD
Duration : 1h 28mn
Bit rate : 1 826 Kbps
Width : 720 pixels
Height : 384 pixels
Display aspect ratio : 1.85:1
Frame rate : 23.976 fps
Color space : YUV
Chroma subsampling : 4:2:0
Bit depth : 8 bits
Scan type : Progressive
Compression mode : Lossy
Bits/(Pixel*Frame) : 0.275
Stream size : 1.12 GiB (82%)
Writing library : XviD 1.2.1 (UTC 2008-12-04)
Audio
ID : 1
Format : AC-3
Format/Info : Audio Coding 3
Mode extension : CM (complete main)
Format settings, Endianness : Big
Codec ID : 2000
Duration : 1h 28mn
Bit rate mode : Constant
Bit rate : 384 Kbps
Channel(s) : 6 channels
Channel positions : Front: L C R, Side: L R, LFE
Sampling rate : 48.0 KHz
Bit depth : 16 bits
Compression mode : Lossy
Stream size : 242 MiB (17%)
Alignment : Split accross interleaves
Interleave, duration : 42 ms (1.00 video frame)
Interleave, preload duration : 500 ms
Download / Скачать

Хотите скачать бесплатно? Зарегистрируйтесь на сайте (ссылка на регистрацию). Pirat.ca - самый быстрый торрент трекер в рунете!

Как скачивать  ·   Что такое торрент  ·   Рейтинг и ограничения

EDVAR

Легенда

Пост 08-Янв-2015 21:43 (спустя 12 минут)

[Q] 

LPPI, вы просто молодчина! Супер! Мала посмотрит.

_________________
"Как других судить-вы судьи.Как себя-вы адвокаты"
[Профиль]  [ЛС] 

Jek@

Легенда

Пост 09-Янв-2015 08:48 (спустя 11 часов)

[Q] 

Спасибо!!! .
[Профиль]  [ЛС] 

SHERHAN

683

Пост 09-Янв-2015 09:31 (спустя 43 минуты)

[Q] 

Спасибо!!! Пиратка рулез!!!

_________________
Рыжий хищник, полосатый,
В меру наглый и усатый,
Днём и ночью он не спит,
Зорко в монитор глядит!
[Профиль]  [ЛС] 

platon18

Гроза морей

Пост 09-Янв-2015 09:54 (спустя 22 минуты)

[Q] 

кака же я люблю мультики, спс
[Профиль]  [ЛС] 

wm76

Шкипер

Пост 09-Янв-2015 15:35 (спустя 5 часов)

[Q] 

Мне понравилось anime28
[Профиль]  [ЛС] 

buddytomsk1

Шкипер

Пост 09-Янв-2015 18:57 (спустя 3 часа)

[Q] 

В детстве я смотрел. Сейчас доча смотрит. Вот вместе полнометражку и глянем )))
Хотя, подозреваю, нет там теперь такой непосредственности, как раньше... Да и графика компьютерная, а не ручная....

_________________
Осталось только флудить, что-бы стать ФЛИБУСТЬЕРОМ...
[Профиль]  [ЛС] 

Alexlogin

Гроза морей

105

Пост 09-Янв-2015 20:06 (спустя 1 час 9 минут)

[Q] 

Спасибо дочка будет рада
[Профиль]  [ЛС] 

Vicflower

Шкипер

Пост 24-Фев-2015 01:09 (спустя 1 месяц 14 дней)

[Q] 

В детстве любила смотреть этот мультик!!!! Посмотрим новые приключения Пчёлки Майи!))) !COOL! Супер!
[Профиль]  [ЛС] 
Показать сообщения:    
Ответить на тему

Текущее время: Сегодня 05:09

Часовой пояс: GMT + 4



Вы не можете начинать темы
Вы не можете отвечать на сообщения
Вы не можете редактировать свои сообщения
Вы не можете удалять свои сообщения
Вы не можете голосовать в опросах
Вы не можете прикреплять файлы к сообщениям
Вы не можете скачивать файлы

▼ Вниз