ML
     
  Уважаемый Гость!
Вы можете поддержать проект и зарегистрироваться у наших партнеров - онлайн-стратегия MyLands. При регистрации в игре Вы получите код, который сможете активировать после регистрации на pirat.ca и получить 1000 дублонов.

Ваш код:
a978488e62322cd72e113ab723b8a7fdc10eb9b9
 
     

Новые Мстители: Герои завтрашнего дня / Next Avengers: Heroes of Tomorrow (Джей Олива, Гари Хартл / Jay Oliva, Gary Hartle) [2008 г., Мультфильм, Фантастика, Боевик, Семейный, HDRip] MVO

Ответить на тему
 
Автор
Сообщение

Пост 21-Янв-2012 12:19

[Q] 

Ksandr

Флибустьер

Новые Мстители: Герои завтрашнего дня / Next Avengers: Heroes of Tomorrow
Год выпуска: 2008
Мировая премьера: 2 сентября 2008
Дата выхода DVD: 26 февраля 2009
Дата выхода Blu-Ray: 26 мая 2011
Производство: США
Жанр: Мультфильм, Фантастика, Боевик, Семейный
Продолжительность: 01:18:02
Перевод: Профессиональный (многоголосый, закадровый)
Оригинальный аудиопоток: английский
Субтитры: отсутствуют
Режиссер: Джей Олива, Гари Хартл / Jay Oliva, Gary Hartle
В ролях
Ной Кроуфорд, Бренна О’Брайэн, Эйдан Драммонд, Демпси Паппион, Адриан Петрив, Том Кэйн, Фред Татаскьор, Шоун МакДональд, Майкл Адамуэйт, Кен Крамер
Описание
Всякий раз, когда силы зла угрожали человечеству, самые могущественные герои Земли «Мстители» останавливали их. Пришло время молодого поколения. Теперь новые герои будут вершить правосудие и они должны закончить борьбу, которую начали их родители.
Источник/Качество: HDRip
Формат: AVI
Видео кодек: XviD
Аудио кодек: AC3
Видео: 704x400, ~1758 kbps, 23,976 fps
Аудио: RUS: 6ch, 448 kbps, 48,0 КГц
Аудио #2: ENG: 6ch, 448 kbps, 48,0 КГц
Общее
Полное имя : Next Avengers Heroes of Tomorrow[pirat.ca].avi
Формат : AVI
Формат/Информация : Audio Video Interleave
Размер файла : 1,45 Гбайт
Продолжительность : 1 ч. 18 м.
Общий поток : 2668 Кбит/сек
Программа кодирования : VirtualDubMod 1.5.10.2 (build 2540/release)
Библиотека кодирования : VirtualDubMod build 2540/release
Видео
Идентификатор : 0
Формат : MPEG-4 Visual
Профиль формата : Advanced [email protected]
Параметр BVOP формата : 1
Параметр QPel формата : Нет
Параметр GMC формата : Без точки перехода
Параметр матрицы формата : Выборочная
Идентификатор кодека : XVID
Идентификатор кодека/Подсказка : XviD
Продолжительность : 1 ч. 18 м.
Битрейт : 1758 Кбит/сек
Ширина : 704 пикселя
Высота : 400 пикселей
Соотношение сторон : 16:9
Частота кадров : 23,976 кадра/сек
Цветовое пространство : YUV
Субдискретизация насыщенности : 4:2:0
Битовая глубина : 8 бит
Тип развёртки : Прогрессивная
Метод сжатия : С потерями
Бит/(Пиксели*Кадры) : 0.260
Размер потока : 981 Мбайт (66%)
Библиотека кодирования : XviD 63
Аудио #1
Идентификатор : 1
Формат : AC-3
Формат/Информация : Audio Coding 3
Расширение режима : CM (complete main)
Идентификатор кодека : 2000
Продолжительность : 1 ч. 18 м.
Вид битрейта : Постоянный
Битрейт : 448 Кбит/сек
Каналы : 6 каналов
Расположение каналов : Front: L C R, Side: L R, LFE
Частота : 48,0 КГц
Битовая глубина : 16 бит
Метод сжатия : С потерями
Размер потока : 250 Мбайт (17%)
Выравнивание : Разделение по промежуткам
Продолжительность промежутка : 42 мс. (1,00 видеокадр)
Время предзагрузки промежутка : 500 мс.
Аудио #2
Идентификатор : 2
Формат : AC-3
Формат/Информация : Audio Coding 3
Расширение режима : CM (complete main)
Идентификатор кодека : 2000
Продолжительность : 1 ч. 18 м.
Вид битрейта : Постоянный
Битрейт : 448 Кбит/сек
Каналы : 6 каналов
Расположение каналов : Front: L C R, Side: L R, LFE
Частота : 48,0 КГц
Битовая глубина : 16 бит
Метод сжатия : С потерями
Размер потока : 250 Мбайт (17%)
Выравнивание : Разделение по промежуткам
Продолжительность промежутка : 42 мс. (1,00 видеокадр)
Время предзагрузки промежутка : 500 мс.
Релиз подготовлен:
Download / Скачать

Хотите скачать бесплатно? Зарегистрируйтесь на сайте (ссылка на регистрацию). Pirat.ca - самый быстрый торрент трекер в рунете!

Как скачивать  ·   Что такое торрент  ·   Рейтинг и ограничения

Пост 21-Янв-2012 12:52 (спустя 32 минуты)

Топик был перенесен из форума Мультипликация в форум Зарубежные полнометражные мультфильмы

CaptRom
 

Коммунист

Морской Волк

Пост 21-Янв-2012 21:19 (спустя 8 часов)

[Q] 

прыкольно!
[Профиль]  [ЛС] 

LETHIK2010

Морской Волк

Пост 23-Янв-2012 15:46 (спустя 1 день 18 часов)

[Q] 

Спасибо. Посмотрим.
[Профиль]  [ЛС] 

manu

Пост 14-Ноя-2013 19:14 (спустя 1 год 9 месяцев)

[Q] 

Постою на раздаче. Супер! Модератор не слажал...
[Профиль]  [ЛС] 
Показать сообщения:    
Ответить на тему

Текущее время: Сегодня 22:09

Часовой пояс: GMT + 4



Вы не можете начинать темы
Вы не можете отвечать на сообщения
Вы не можете редактировать свои сообщения
Вы не можете удалять свои сообщения
Вы не можете голосовать в опросах
Вы не можете прикреплять файлы к сообщениям
Вы не можете скачивать файлы

▼ Вниз