ML
     
  Уважаемый Гость!
Вы можете поддержать проект и зарегистрироваться у наших партнеров - онлайн-стратегия MyLands. При регистрации в игре Вы получите код, который сможете активировать после регистрации на pirat.ca и получить 1000 дублонов.

Ваш код:
c89b4b6523eaac3173e9a9c062ac1a19db575961
 
     

Каспер: Рождество призраков / Casper's Haunted Christmas (Оуэн Хёрли / Owen Hurley) [2000 г., Мультфильм, Ужасы, Фэнтези, Семейный, HDRip] MVO

Ответить на тему
 
Автор
Сообщение

Пост 21-Янв-2012 12:41

[Q] 

Ksandr

Флибустьер

Каспер: Рождество призраков / Casper's Haunted Christmas
Год выпуска: 2000
Мировая премьера: 31 октября 2000
Дата выхода DVD: 18 декабря 2008
Производство: США, Канада
Жанр: Мультфильм, Ужасы, Фэнтези, Семейный
Продолжительность: 01:19:59
Перевод: Профессиональный (многоголосый, закадровый)
Субтитры: отсутствуют
Режиссер: Оуэн Хёрли / Owen Hurley
В ролях
Брендон Райан Баррет, Кэтлин Барр, Йен Джеймс Корлетт, Дэвид Кэй, Грем Кингстон, Терри Классен, Скотт МакНил, Теган Мосс, Колин Мёрдок, Полина Гиллис
Описание
Повсюду слышен волшебный звон колокольчиков и веселое пение детей. У дружелюбного привидения Каспера отличное настроение! Но предводитель всех призраков Кибош приказывает ему напугать хотя бы одного человека перед Рождеством.
В противном случае Каспер и трое его дядюшек-призраков — Длинный, Толстяк и Вонючка — будут строго наказаны. Добрый Каспер безуспешно пытается справиться с данным ему поручением. Как нашим героям избежать наказания и никому не испортить праздничного настроения?..
Источник/Качество: HDRip
Формат: AVI
Видео кодек: XviD
Аудио кодек: AC3
Видео: 720x352, ~1570 kbps, 25,000 fps
Аудио: 6ch, 448 kbps, 48,0 КГц
Общее
Полное имя : Casper's Haunted Christmas[pirat.ca].avi
Формат : AVI
Формат/Информация : Audio Video Interleave
Размер файла : 1,13 Гбайт
Продолжительность : 1 ч. 19 м.
Общий поток : 2024 Кбит/сек
Программа кодирования : VirtualDubMod 1.5.4.1 (build 2178/release)
Библиотека кодирования : VirtualDubMod build 2178/release
Видео
Идентификатор : 0
Формат : MPEG-4 Visual
Профиль формата : Advanced [email protected]
Параметр BVOP формата : Нет
Параметр QPel формата : Нет
Параметр GMC формата : Без точки перехода
Параметр матрицы формата : Выборочная
Идентификатор кодека : XVID
Идентификатор кодека/Подсказка : XviD
Продолжительность : 1 ч. 19 м.
Битрейт : 1570 Кбит/сек
Ширина : 720 пикселей
Высота : 352 пикселя
Соотношение сторон : 2,045
Частота кадров : 25,000 кадров/сек
Цветовое пространство : YUV
Субдискретизация насыщенности : 4:2:0
Битовая глубина : 8 бит
Тип развёртки : Прогрессивная
Метод сжатия : С потерями
Бит/(Пиксели*Кадры) : 0.248
Размер потока : 898 Мбайт (78%)
Библиотека кодирования : XviD 1.2.1 (UTC 2008-12-04)
Аудио
Идентификатор : 1
Формат : AC-3
Формат/Информация : Audio Coding 3
Расширение режима : CM (complete main)
Идентификатор кодека : 2000
Продолжительность : 1 ч. 19 м.
Вид битрейта : Постоянный
Битрейт : 448 Кбит/сек
Каналы : 6 каналов
Расположение каналов : Front: L C R, Side: L R, LFE
Частота : 48,0 КГц
Битовая глубина : 16 бит
Метод сжатия : С потерями
Размер потока : 256 Мбайт (22%)
Выравнивание : Разделение по промежуткам
Продолжительность промежутка : 96 мс. (2,41 видеокадра)
Время предзагрузки промежутка : 96 мс.
Язык : Russian
Релиз подготовлен:
Download / Скачать

Хотите скачать бесплатно? Зарегистрируйтесь на сайте (ссылка на регистрацию). Pirat.ca - самый быстрый торрент трекер в рунете!

Как скачивать  ·   Что такое торрент  ·   Рейтинг и ограничения

Пост 21-Янв-2012 12:51 (спустя 10 минут)

Топик был перенесен из форума Мультипликация в форум Зарубежные полнометражные мультфильмы

CaptRom
 

Коммунист

Морской Волк

Пост 21-Янв-2012 21:35 (спустя 8 часов)

[Q] 

а детям, блин, нравится.
[Профиль]  [ЛС] 

ara1205

69744

Пост 19-Июн-2012 19:00 (спустя 4 месяца 28 дней)

[Q] 

[Профиль]  [ЛС] 

CHARLI2236

1098

Пост 28-Окт-2012 22:12 (спустя 4 месяца 9 дней)

[Q] 

благодарю

_________________
[Профиль]  [ЛС] 

manu

Пост 14-Ноя-2013 19:13 (спустя 1 год)

[Q] 

Постою на раздаче. Спасибо!!! Супер!
[Профиль]  [ЛС] 
Показать сообщения:    
Ответить на тему

Текущее время: Сегодня 22:29

Часовой пояс: GMT + 4



Вы не можете начинать темы
Вы не можете отвечать на сообщения
Вы не можете редактировать свои сообщения
Вы не можете удалять свои сообщения
Вы не можете голосовать в опросах
Вы не можете прикреплять файлы к сообщениям
Вы не можете скачивать файлы

▼ Вниз