ML
     
  Уважаемый Гость!
Вы можете поддержать проект и зарегистрироваться у наших партнеров - онлайн-стратегия MyLands. При регистрации в игре Вы получите код, который сможете активировать после регистрации на pirat.ca и получить 1000 дублонов.

Ваш код:
e93cd9e43017f251127f220889864c05934e61c6
 
     

Астерикс: Земля Богов / Astérix: Le domaine des dieux (Луис Клиши / Louis Clichy, Александр Астье / Alexandre Astier) [2014 г., мультфильм, приключения, фэнтези, комедия, HDRip] Dub [Лицензия]

Ответить на тему
 
Автор
Сообщение

Пост 07-Фев-2015 14:10

[Q] 

kugesan

-Астерикс: Земля Богов / Astérix: Le domaine des dieux«Самый громкий! Самый остроумный! Самый увлекательный!»-- Производство: Франция / M6 Studio, Belvision, Grid Animation
Год выпуска: 2014 г.
Жанр: мультфильм, приключения, фэнтези, комедия
Продолжительность: 01:22:30-Мировая премьера: 26 ноября 2014
Российская премьера: 18 декабря 2014, «Парадиз»
Дата выхода DVD: 10 февраля 2015, «Парадиз / Активижен»
Дата выхода Blu-Ray: 10 февраля 2015, «Парадиз / Активижен»
Перевод: Профессиональный (полное дублирование) [Лицензия]
Режиссер: Луис Клиши / Louis Clichy, Александр Астье / Alexandre Astier
В ролях: Роже Карель, Лоран Дойч, Лоран Лафитт, Александр Астье, Ален Шаба, Эли Семун, Жеральдин Накаш, Артюс де Пенгерн, Лионель Астье, Франсуа Морель-Описание: Астерикс и его лучший друг Обеликс продолжают свою многолетнюю борьбу с Цезарем, который хочет наконец-то расправиться с неукротимыми галлами. Вокруг деревни Астерикса Цезарь приказывает построить новый Рим — Землю Богов. В галльской деревне хаос и смятение. Но Астерикс и Обеликс не сдаются!-Качество видео: HDRip
Контейнер: AVI
Видео кодек: XviD
Аудио кодек: AC3
Видео: MPEG-4 Visual at 1830 Кбит/сек: 720 x 400 (1.800) at 23.976 fps, 0.26 bit/pixel
Аудио Rus: AC-3 at 448 Кбит/сек: 6 каналов, 48,0 КГц
Cубтитры: отсутствуют
Общее
Полное имя : E:\РАЗДАЧА\Films\Aster1ks.2014.D.HDRip.1400MB.avi
Формат : AVI
Формат/Информация : Audio Video Interleave
Размер файла : 1,37 Гбайт
Продолжительность : 1 ч. 25 м.
Общий поток : 2287 Кбит/сек
Программа кодирования : VirtualDubMod 1.5.10.2 (build 2540/release)
Библиотека кодирования : VirtualDubMod build 2540/release
Видео
Идентификатор : 0
Формат : MPEG-4 Visual
Профиль формата : Advanced [email protected]
Параметр BVOP формата : 2
Параметр QPel формата : Нет
Параметр GMC формата : Без точки перехода
Параметр матрицы формата : Выборочная
Идентификатор кодека : XVID
Идентификатор кодека/Подсказка : XviD
Продолжительность : 1 ч. 25 м.
Битрейт : 1830 Кбит/сек
Ширина : 720 пикселей
Высота : 400 пикселей
Соотношение сторон : 16:9
Частота кадров : 23,976 кадра/сек
Цветовое пространство : YUV
Субдискретизация насыщенности : 4:2:0
Битовая глубина : 8 бит
Тип развёртки : Прогрессивная
Метод сжатия : С потерями
Бит/(Пиксели*Кадры) : 0.265
Размер потока : 1,09 Гбайт (80%)
Библиотека кодирования : XviD 1.2.1 (UTC 2008-12-04)
Аудио
Идентификатор : 1
Формат : AC-3
Формат/Информация : Audio Coding 3
Расширение режима : CM (complete main)
Параметр Endianness формата : Big
Идентификатор кодека : 2000
Продолжительность : 1 ч. 25 м.
Вид битрейта : Постоянный
Битрейт : 448 Кбит/сек
Каналы : 6 каналов
Расположение каналов : Front: L C R, Side: L R, LFE
Частота : 48,0 КГц
Битовая глубина : 16 бит
Метод сжатия : С потерями
Размер потока : 274 Мбайт (20%)
Выравнивание : Разделение по промежуткам
Продолжительность промежутка : 42 мс. (1,00 видеокадр)
Время предзагрузки промежутка : 500 мс.
-
-
Download / Скачать

Хотите скачать бесплатно? Зарегистрируйтесь на сайте (ссылка на регистрацию). Pirat.ca - самый быстрый торрент трекер в рунете!

Как скачивать  ·   Что такое торрент  ·   Рейтинг и ограничения

serega_tk

Лоцман

91

Пост 07-Фев-2015 15:01 (спустя 50 минут)

[Q] 

Спасибо!!!
[Профиль]  [ЛС] 

Dmitriy1881

Корсар

Пост 07-Фев-2015 15:28 (спустя 26 минут)

[Q] 

спасибо, поглядим!
[Профиль]  [ЛС] 

Jek@

Легенда

Пост 07-Фев-2015 15:55 (спустя 27 минут)

[Q] 

Спасибо!!! .
[Профиль]  [ЛС] 

kugesan ®

56634

Пост 07-Фев-2015 16:20 (спустя 24 минуты)

[Q] 

Приятного просмотра!!!

_________________

В мире две бесконечности: вселенная и человеческая глупость - Альберт Эйнштен
«Можно вытащить человека из грязи, но нельзя вытащить грязь из человека»!
[Профиль]  [ЛС] 

BORT-747

Флибустьер

352

Пост 07-Фев-2015 22:49 (спустя 6 часов)

[Q] 

ну что, надеюсь так же смешно

_________________
[Профиль]  [ЛС] 

activ1

Корсар

Пост 08-Фев-2015 02:16 (спустя 3 часа)

[Q] 

Спасибо!!!
[Профиль]  [ЛС] 

kugesan ®

56634

Пост 08-Фев-2015 12:01 (спустя 9 часов)

[Q] 

activ1, Спасибо за Спасибо

_________________

В мире две бесконечности: вселенная и человеческая глупость - Альберт Эйнштен
«Можно вытащить человека из грязи, но нельзя вытащить грязь из человека»!
[Профиль]  [ЛС] 

MikeB

Гроза морей

Пост 08-Фев-2015 16:29 (спустя 4 часа)

[Q] 

!COOL!
[Профиль]  [ЛС] 

СерКат

Корсар

Пост 08-Фев-2015 21:04 (спустя 4 часа)

[Q] 

хороший мультик,я посмеялся ay
[Профиль]  [ЛС] 

svat74

Корсар

Пост 09-Фев-2015 16:02 (спустя 18 часов)

[Q] 

для ребёнка качаю Автору респект!!!
[Профиль]  [ЛС] 

kugesan ®

56634

Пост 09-Фев-2015 23:01 (спустя 6 часов)

[Q] 

Приятного просмотра!!!

_________________

В мире две бесконечности: вселенная и человеческая глупость - Альберт Эйнштен
«Можно вытащить человека из грязи, но нельзя вытащить грязь из человека»!
[Профиль]  [ЛС] 

duvet

Штурман

Пост 15-Фев-2015 02:34 (спустя 5 дней)

[Q] 

Интересный мультфильм, понравился. Спасибо!!!
[Профиль]  [ЛС] 
Показать сообщения:    
Ответить на тему

Текущее время: Сегодня 04:29

Часовой пояс: GMT + 4



Вы не можете начинать темы
Вы не можете отвечать на сообщения
Вы не можете редактировать свои сообщения
Вы не можете удалять свои сообщения
Вы не можете голосовать в опросах
Вы не можете прикреплять файлы к сообщениям
Вы не можете скачивать файлы

▼ Вниз