ML
     
  Уважаемый Гость!
Вы можете поддержать проект и зарегистрироваться у наших партнеров - онлайн-стратегия MyLands. При регистрации в игре Вы получите код, который сможете активировать после регистрации на pirat.ca и получить 1000 дублонов.

Ваш код:
6f9ab67d502902cc72a06c406977ddb589b7f39d
 
     

Астерикс: Земля Богов / Astérix: Le domaine des dieux (Луис Клиши / Louis Clichy, Александр Астье / Alexandre Astier) [2014 г., мультфильм, приключения, фэнтези, комедия, BDRip-AVC] Dub (Лицензия)

Ответить на тему
 
Автор
Сообщение

Пост 10-Фев-2015 17:51

[Q] 

LPPI

-Астерикс: Земля Богов / Astérix: Le domaine des dieux-«Самый громкий! Самый остроумный! Самый увлекательный!»- Производство: Франция / M6 Studio, Belvision, Grid Animation
Год выпуска: 2014 г.
Жанр: мультфильм, приключения, фэнтези, комедия
Продолжительность: 01:25:34
Мировая премьера: 26 ноября 2014
Российская премьера: 18 декабря 2014, «Парадиз»
Дата выхода DVD: 10 февраля 2015, «Парадиз / Активижен»
Дата выхода Blu-Ray: 10 февраля 2015, «Парадиз / Активижен»
Перевод: Профессиональный (полное дублирование) [Лицензия]-Режиссер: Луис Клиши / Louis Clichy, Александр Астье / Alexandre Astier
В ролях: Роже Карель, Лоран Дойч, Лоран Лафитт, Александр Астье, Ален Шаба, Эли Семун, Жеральдин Накаш, Артюс де Пенгерн, Лионель Астье, Франсуа Морель-Описание: Астерикс и его лучший друг Обеликс продолжают свою многолетнюю борьбу с Цезарем, который хочет наконец-то расправиться с неукротимыми галлами. Вокруг деревни Астерикса Цезарь приказывает построить новый Рим — Землю Богов. В галльской деревне хаос и смятение. Но Астерикс и Обеликс не сдаются!- -Качество видео: BDRip-AVC
Контейнер: MKV
Видео кодек: H.264
Аудио кодек: AC3
Видео: 1024x576 (16:9), 23.976 fps, ~2 334 kbps avg, 0.165 bit/pixel
Аудио: 48 kHz, AC3 Dolby Digital, 3/2 (L,C,R,l,r) + LFE ch, ~448 kbps
Cубтитры: отсутствуют
General
Unique ID : 236376024963802385315381994597345374079 (0xB1D45DD06867D18388F750A7D98FAF7F)
Complete name : C:\Users\Ivan\Desktop\Astérix.Le.domaine.des.dieux.2014.BDRip-AVC.mkv
Format : Matroska
Format version : Version 2
File size : 1.66 GiB
Duration : 1h 25mn
Overall bit rate : 2 782 Kbps
Movie name : Rip by LPPI
Encoded date : UTC 2015-02-10 13:37:58
Writing application : mkvmerge v5.5.0 ('Healer') built on Apr 6 2012 21:43:24
Writing library : libebml v1.2.3 + libmatroska v1.3.0
DURATION : 01:25:34.688000000
NUMBER_OF_FRAMES : 160459
NUMBER_OF_BYTES : 287542528
_STATISTICS_WRITING_APP : mkvmerge v7.6.0 ('Garden of Dreams') 64bit built on Feb 8 2015 13:04:34
_STATISTICS_WRITING_DATE_UT : 2015-02-10 13:36:37
_STATISTICS_TAGS : BPS DURATION NUMBER_OF_FRAMES NUMBER_OF_BYTES
Video
ID : 1
Format : AVC
Format/Info : Advanced Video Codec
Format profile : [email protected]
Format settings, CABAC : Yes
Format settings, ReFrames : 7 frames
Codec ID : V_MPEG4/ISO/AVC
Duration : 1h 25mn
Bit rate : 2 334 Kbps
Width : 1 024 pixels
Height : 576 pixels
Display aspect ratio : 16:9
Frame rate mode : Constant
Frame rate : 23.976 fps
Color space : YUV
Chroma subsampling : 4:2:0
Bit depth : 8 bits
Scan type : Progressive
Bits/(Pixel*Frame) : 0.165
Stream size : 1.36 GiB (82%)
Title : Астерикс: Земля Богов / Astérix: Le domaine des dieux
Writing library : x264 core 130 r2273 b3065e6
Encoding settings : cabac=1 / ref=7 / deblock=1:-3:-3 / analyse=0x3:0x133 / me=umh / subme=10 / psy=1 / psy_rd=1.00:0.15 / mixed_ref=0 / me_range=32 / chroma_me=1 / trellis=2 / 8x8dct=1 / cqm=0 / deadzone=21,11 / fast_pskip=0 / chroma_qp_offset=-3 / threads=12 / lookahead_threads=2 / sliced_threads=0 / nr=0 / decimate=0 / interlaced=0 / bluray_compat=0 / constrained_intra=0 / bframes=8 / b_pyramid=2 / b_adapt=2 / b_bias=0 / direct=3 / weightb=1 / open_gop=0 / weightp=2 / keyint=250 / keyint_min=23 / scenecut=40 / intra_refresh=0 / rc=2pass / mbtree=0 / bitrate=2334 / ratetol=1.0 / qcomp=0.60 / qpmin=0 / qpmax=69 / qpstep=4 / cplxblur=20.0 / qblur=0.5 / ip_ratio=1.40 / pb_ratio=1.30 / aq=1:1.00
Language : French
Default : Yes
Forced : No
DURATION : 01:25:34.677000000
NUMBER_OF_FRAMES : 123109
NUMBER_OF_BYTES : 1496688564
_STATISTICS_WRITING_APP : mkvmerge v7.6.0 ('Garden of Dreams') 64bit built on Feb 8 2015 13:04:34
_STATISTICS_WRITING_DATE_UT : 2015-02-10 13:36:37
_STATISTICS_TAGS : BPS DURATION NUMBER_OF_FRAMES NUMBER_OF_BYTES
Audio
ID : 2
Format : AC-3
Format/Info : Audio Coding 3
Mode extension : CM (complete main)
Format settings, Endianness : Big
Codec ID : A_AC3
Duration : 1h 25mn
Bit rate mode : Constant
Bit rate : 448 Kbps
Channel(s) : 6 channels
Channel positions : Front: L C R, Side: L R, LFE
Sampling rate : 48.0 KHz
Bit depth : 16 bits
Compression mode : Lossy
Stream size : 274 MiB (16%)
Title : Dub (Лицензия)
Language : Russian
Default : Yes
Forced : No
Menu
00:00:00.000 : :Chapter 1
00:10:00.000 : :Chapter 2
00:20:00.000 : :Chapter 3
00:30:00.000 : :Chapter 4
00:40:00.000 : :Chapter 5
00:50:00.000 : :Chapter 6
01:00:00.000 : :Chapter 7
01:10:00.000 : :Chapter 8
01:20:00.000 : :Chapter 9
x264 [info]: frame I:1130  Avg QP:15.02  size:104576
x264 [info]: frame P:32599 Avg QP:17.51 size: 25329
x264 [info]: frame B:89380 Avg QP:18.18 size: 6185
Download / Скачать

Хотите скачать бесплатно? Зарегистрируйтесь на сайте (ссылка на регистрацию). Pirat.ca - самый быстрый торрент трекер в рунете!

Как скачивать  ·   Что такое торрент  ·   Рейтинг и ограничения

rataty

Штурман

Пост 10-Фев-2015 20:34 (спустя 2 часа 43 минуты)

[Q] 


_________________
[Профиль]  [ЛС] 

kinstintin

Гроза морей

Пост 10-Фев-2015 22:31 (спустя 1 час 57 минут)

[Q] 

Автору респект!!!
Спасибо!!!
[Профиль]  [ЛС] 

stas498

Корсар

Пост 11-Фев-2015 13:36 (спустя 15 часов)

[Q] 

Спасибо!!! Автору респект!!!
[Профиль]  [ЛС] 

Vlavar

Штурман

Пост 11-Фев-2015 15:15 (спустя 1 час 39 минут)

[Q] 

Ну, ща посмотрю!
[Профиль]  [ЛС] 

Golsergio

Флибустьер

Пост 12-Фев-2015 12:11 (спустя 20 часов)

[Q] 

как мульт? есть над чем посмеяться?стоит качать?
[Профиль]  [ЛС] 

ALEHAN

Легенда

Пост 01-Мар-2015 23:42 (спустя 17 дней)

[Q] 

И как у французов получается раз от раза на таком слабом материале делать такие добротные фильмы и мульты. Уж думал хоть на этом мульте слажают, нет ведь, опять ржал от души.
[Профиль]  [ЛС] 
Показать сообщения:    
Ответить на тему

Текущее время: Сегодня 16:27

Часовой пояс: GMT + 4



Вы не можете начинать темы
Вы не можете отвечать на сообщения
Вы не можете редактировать свои сообщения
Вы не можете удалять свои сообщения
Вы не можете голосовать в опросах
Вы не можете прикреплять файлы к сообщениям
Вы не можете скачивать файлы

▼ Вниз