ML
     
  Уважаемый Гость!
Вы можете поддержать проект и зарегистрироваться у наших партнеров - онлайн-стратегия MyLands. При регистрации в игре Вы получите код, который сможете активировать после регистрации на pirat.ca и получить 1000 дублонов.

Ваш код:
8b752b428cf60a012c159dcae592cd1392170115
 
     

Лига Справедливости: Трон Атлантиды / Justice League: Throne of Atlantis (Этан Сполдинг / Ethan Spaulding) [2015 г., мультфильм, фантастика, боевик, приключения, BDRip] MVO (ZM-SHOW) + Original (Eng)

Ответить на тему
 
Автор
Сообщение

Пост 16-Фев-2015 08:32

[Q] 

LPPI

-Лига Справедливости: Трон Атлантиды / Justice League: Throne of Atlantis- Производство: США, DC Comics, Warner Bros. Animation
Год выпуска: 2015 г.
Жанр: мультфильм, фантастика, боевик, приключения
Продолжительность: 01:12:07
Мировая премьера: 13 января 2015
Перевод: Любительский (многоголосый, закадровый) [ZM-SHOW]
Оригинальный аудиопоток: английский-Режиссер: Этан Сполдинг / Ethan Spaulding
В ролях: Шон Эстин, Стивен Блум, Розарио Доусон, Натан Филлион, Кристофер Горам, Сирена Ирвин, Мэтт Лантер, Сумали Монтано, Джерри О`Коннелл, Джейсон О’Мара, Шон Патрик Томас, Сэм Уитвер-Описание: О противостояние Аквамена и его брата Орма Повелителя Океана, который объявил войну жителям поверхности Земли после смерти короля Атлантиды во время инопланетного вторжения. События «Трона Антлантиды» будут разворачиваться вокруг молодого Артура Карри, который узнает о своем происхождении. Теперь он вынужден объединится с Лигой Справедливости, чтобы остановить Орма. Мы знакомимся с Артуром в очень сложный, поворотный момент его жизни. Его отец умирает, и он остается один, он становится изгоем. Когда армия Атлантиды начинает вторжение на поверхность, Артур еще не знаем о своем происхождении. Однако, как только он узнает о своем наследии, то ему предстоит сделать нелегкий выбор, который в итоге определит его судьбу.- -Качество видео: BDRip
Контейнер: AVI
Видео кодек: XviD
Аудио кодек: AC3
Видео: 704x400 (1.76:1), 23.976 fps, XviD build 50 ~1814 kbps avg, 0.27 bit/pixel
Аудио: 48 kHz, AC3 Dolby Digital, 3/2 (L,C,R,l,r) + LFE ch, ~448 kbps - Rus
Аудио #2: 48 kHz, AC3 Dolby Digital, 3/2 (L,C,R,l,r) + LFE ch, ~448 kbps - Eng
Cубтитры: отсутствуют
General
Complete name : C:\Users\Ivan\Desktop\Justi1ce.L3ague.Thr0ne.0f.Atlant1s.2015.BDRip.1400MB.avi
Format : AVI
Format/Info : Audio Video Interleave
File size : 1.37 GiB
Duration : 1h 12mn
Overall bit rate : 2 725 Kbps
Movie name : Лига Справедливости: Трон Атлантиды (2015) BDRip
Director : Rip by LPPI
Genre : Action/Adventure
Writing application : VirtualDubMod 1.5.10.2 (build 2540/release)
Original source form/Name : Cartoon
Comment : http://pirat.ca
Video
ID : 0
Format : MPEG-4 Visual
Format profile : Advanced [email protected]
Format settings, BVOP : 2
Format settings, QPel : No
Format settings, GMC : No warppoints
Format settings, Matrix : Default (MPEG)
Codec ID : XVID
Codec ID/Hint : XviD
Duration : 1h 12mn
Bit rate : 1 815 Kbps
Width : 704 pixels
Height : 400 pixels
Display aspect ratio : 16:9
Frame rate : 23.976 fps
Color space : YUV
Chroma subsampling : 4:2:0
Bit depth : 8 bits
Scan type : Progressive
Compression mode : Lossy
Bits/(Pixel*Frame) : 0.269
Stream size : 936 MiB (67%)
Writing library : XviD 1.2.1 (UTC 2008-12-04)
Audio #1
ID : 1
Format : AC-3
Format/Info : Audio Coding 3
Mode extension : CM (complete main)
Format settings, Endianness : Big
Codec ID : 2000
Duration : 1h 12mn
Bit rate mode : Constant
Bit rate : 448 Kbps
Channel(s) : 6 channels
Channel positions : Front: L C R, Side: L R, LFE
Sampling rate : 48.0 KHz
Bit depth : 16 bits
Compression mode : Lossy
Stream size : 231 MiB (16%)
Alignment : Split accross interleaves
Interleave, duration : 42 ms (1.00 video frame)
Interleave, preload duratio : 500 ms
Audio #2
ID : 2
Format : AC-3
Format/Info : Audio Coding 3
Mode extension : CM (complete main)
Format settings, Endianness : Big
Codec ID : 2000
Duration : 1h 12mn
Bit rate mode : Constant
Bit rate : 448 Kbps
Channel(s) : 6 channels
Channel positions : Front: L C R, Side: L R, LFE
Sampling rate : 48.0 KHz
Bit depth : 16 bits
Compression mode : Lossy
Stream size : 231 MiB (16%)
Alignment : Split accross interleaves
Interleave, duration : 42 ms (1.00 video frame)
Interleave, preload duratio : 500 ms
Download / Скачать

Хотите скачать бесплатно? Зарегистрируйтесь на сайте (ссылка на регистрацию). Pirat.ca - самый быстрый торрент трекер в рунете!

Как скачивать  ·   Что такое торрент  ·   Рейтинг и ограничения

EDVAR

Легенда

Пост 17-Фев-2015 00:48 (спустя 16 часов)

[Q] 

Раздающему респект! Благодарю!!!

_________________
"Как других судить-вы судьи.Как себя-вы адвокаты"
[Профиль]  [ЛС] 

ATHLON

Шкипер

12

Пост 01-Мар-2015 01:44 (спустя 12 дней)

[Q] 

ну и как? Автору респект!!!
[Профиль]  [ЛС] 
Показать сообщения:    
Ответить на тему

Текущее время: Сегодня 06:24

Часовой пояс: GMT + 4



Вы не можете начинать темы
Вы не можете отвечать на сообщения
Вы не можете редактировать свои сообщения
Вы не можете удалять свои сообщения
Вы не можете голосовать в опросах
Вы не можете прикреплять файлы к сообщениям
Вы не можете скачивать файлы

▼ Вниз