ML
     
  Уважаемый Гость!
Вы можете поддержать проект и зарегистрироваться у наших партнеров - онлайн-стратегия MyLands. При регистрации в игре Вы получите код, который сможете активировать после регистрации на pirat.ca и получить 1000 дублонов.

Ваш код:
ca44e9295b9b8527ba1c339c20494f70782efea6
 
     

Город героев / Big Hero 6 (Дон Холл / Don Hall, Крис Уильямс / Chris Williams) [2014 г., мультфильм, фантастика, комедия, семейный, боевик, BDRip] Dub (iTunes Russia)

Ответить на тему
 
Автор
Сообщение

Пост 27-Фев-2015 08:41

[Q] 

LPPI

-Город героев / Big Hero 6- Производство: США, Walt Disney Animation Studios, Walt Disney Pictures
Год выпуска: 2014 г.
Жанр: мультфильм, фантастика, комедия, семейный, боевик
Продолжительность: 01:41:52
Мировая премьера: 23 октября 2014
Российская премьера: 25 октября 2014, «WDSSPR
Дата выхода DVD: 3 марта 2015, «Уолт Дисней Компани СНГ»
Дата выхода Blu-Ray: 3 марта 2015, «Уолт Дисней Компани СНГ»
Перевод: Профессиональный (полное дублирование) [iTunes Russia]-Режиссер: Дон Холл / Don Hall, Крис Уильямс / Chris Williams
В ролях: Даниил Рагин, Максим Сергеев, Аделина Червякова, Валерий Смекалов, Юлия Рудина-Описание: Юный Хиро Хамада — прирожденный изобретатель и гений конструирования роботов. Вместе со старшим братом Тадаши они воплощают в жизнь самые передовые идеи в Техническом университете города будущего Сан-Франсокио. После серии загадочных событий друзья оказываются в центре коварного заговора. Отчаявшись, Хиро решает использовать веселого и добродушного экспериментального робота Бэймакса, перепрограммировав его в неуязвимую боевую машину.- -Качество видео: BDRip | исх. BDRemux 1080p |
Контейнер: AVI
Видео кодек: XviD
Аудио кодек: AC3
Видео: 720x304 (2.37:1), 23.976 fps, XviD build 65 ~1640 kbps avg, 0.31 bit/pixel
Аудио: 48 kHz, AC3 Dolby Digital, 3/2 (L,C,R,l,r) + LFE ch, ~384 kbps
Cубтитры: отсутствуют
General
Complete name : D:\Bighero.6.2014.D.BDRip.1.45GB.avi
Format : AVI
Format/Info : Audio Video Interleave
File size : 1.45 GiB
Duration : 1h 41mn
Overall bit rate : 2 034 Kbps
Writing application : VirtualDubModRus 1.5.10.2 (build 2542/release)
Writing library : VirtualDubMod build 2542/release
Video
ID : 0
Format : MPEG-4 Visual
Format profile : Advanced [email protected]
Format settings, BVOP : 1
Format settings, QPel : No
Format settings, GMC : No warppoints
Format settings, Matrix : Custom
Codec ID : XVID
Codec ID/Hint : XviD
Duration : 1h 41mn
Bit rate : 1 641 Kbps
Width : 720 pixels
Height : 304 pixels
Display aspect ratio : 2.35:1
Frame rate : 23.976 fps
Color space : YUV
Chroma subsampling : 4:2:0
Bit depth : 8 bits
Scan type : Progressive
Compression mode : Lossy
Bits/(Pixel*Frame) : 0.313
Stream size : 1.17 GiB (81%)
Writing library : XviD 65
Audio
ID : 1
Format : AC-3
Format/Info : Audio Coding 3
Mode extension : CM (complete main)
Format settings, Endianness : Big
Codec ID : 2000
Duration : 1h 41mn
Bit rate mode : Constant
Bit rate : 384 Kbps
Channel(s) : 6 channels
Channel positions : Front: L C R, Side: L R, LFE
Sampling rate : 48.0 KHz
Bit depth : 16 bits
Compression mode : Lossy
Stream size : 280 MiB (19%)
Alignment : Split accross interleaves
Interleave, duration : 42 ms (1.00 video frame)
Interleave, preload duratio : 500 ms
Download / Скачать

Хотите скачать бесплатно? Зарегистрируйтесь на сайте (ссылка на регистрацию). Pirat.ca - самый быстрый торрент трекер в рунете!

Как скачивать  ·   Что такое торрент  ·   Рейтинг и ограничения

Alexe10

Гроза морей

36

Пост 27-Фев-2015 09:41 (спустя 1 час)

[Q] 

Посмотрим.
Автору респект!!!
[Профиль]  [ЛС] 

xprotm

Корсар

5

Пост 27-Фев-2015 10:03 (спустя 22 минуты)

[Q] 

Спасибо!!!
На форуме  [Профиль]  [ЛС] 

gnezd77

Флибустьер

Пост 27-Фев-2015 20:39 (спустя 10 часов)

[Q] 

Хороший .... Добрый мульт... Супер! Лови бочку
[Профиль]  [ЛС] 

tema5.88

Морской Волк

2

Пост 27-Фев-2015 20:58 (спустя 18 минут)

[Q] 

Афигенный мультик, кстати оскар получил за лучший мульт!
[Профиль]  [ЛС] 

Роман1412

Морской Волк

Пост 01-Мар-2015 01:37 (спустя 1 день 4 часа)

[Q] 

Интересный мульт, вместе с сыном смотрел
[Профиль]  [ЛС] 

MaXoR

Флибустьер

1470

Пост 01-Мар-2015 10:20 (спустя 8 часов)

[Q] 

Мне понравился. Классный, даже местами смешно.

_________________
Живы будем - не помрем!
[Профиль]  [ЛС] 

Eagle Ed

Шкипер

Пост 06-Мар-2015 18:11 (спустя 5 дней)

[Q] 

Спасибо!!!
[Профиль]  [ЛС] 

maksssa

Шкипер

20

Пост 07-Мар-2015 17:29 (спустя 23 часа)

[Q] 

Оооо! Круть!) Спасибо!!!
[Профиль]  [ЛС] 

Karak

Лоцман

Пост 13-Мар-2015 01:59 (спустя 5 дней)

[Q] 

Супер!
[Профиль]  [ЛС] 
Показать сообщения:    
Ответить на тему

Текущее время: Сегодня 16:15

Часовой пояс: GMT + 4



Вы не можете начинать темы
Вы не можете отвечать на сообщения
Вы не можете редактировать свои сообщения
Вы не можете удалять свои сообщения
Вы не можете голосовать в опросах
Вы не можете прикреплять файлы к сообщениям
Вы не можете скачивать файлы

▼ Вниз