ML
     
  Уважаемый Гость!
Вы можете поддержать проект и зарегистрироваться у наших партнеров - онлайн-стратегия MyLands. При регистрации в игре Вы получите код, который сможете активировать после регистрации на pirat.ca и получить 1000 дублонов.

Ваш код:
193c38d0130f05c24de871678ea3ac181461757d
 
     

7-ой гном / Der 7bte Zwerg (Борис Альинович / Boris Aljinovic) [2014 г., мультфильм, приключения, семейный, BDRip, 720p] Dub (Лицензия) + Original (Ger)

Ответить на тему
 
Автор
Сообщение

Пост 27-Фев-2015 23:36

[Q] 

LPPI

-7-ой гном / Der 7bte Zwerg- Производство: Германия, Zipfelmützen GmbH & Co. KG, Erfttal Film, Animationsfabrik
Год выпуска: 2014 г.
Жанр: мультфильм, приключения, семейный
Продолжительность: 01:27:52
Мировая премьера: 21 августа 2014
Российская премьера: 28 августа 2014, «Централ Партнершип», «All Media»
Дата выхода DVD: 9 октября 2014, «CD Land»
Перевод: Профессиональный (полное дублирование) [Лицензия]
Оригинальный аудиопоток: немецкий-Режиссер: Борис Альинович / Boris Aljinovic
В ролях: Борис Альинович, Элвин Камерон, Нина Хаген, Норберт Хейстеркамп, Мирко Нончев, Ана Сани, Ральф Шмитц, Мартин Шнайдер, Отто Ваалкес, Густав-Петер Вёлер-Описание: В замке Фантабулараса большой переполох: принцесса Роза празднует свой 18-й день рождения. Приняты самые строгие меры безопасности, ведь злобная Колдунья Делламорта, которая прокляла Розу на ее крестинах, не позволит проклятию раствориться в воздухе.
Семеро гномов — Умник, Рыжик, Ворчун, Соня, Силач, Бодряк и Бобо — ничего не знают об этом, когда отправляются на праздник в замок, мечтая повеселиться… Бобо, самый маленький гном, случайно запускает тайный механизм в кольце Колдуньи, и принцесса вместе со всеми гостями замерзает. Гномы спасаются в самую последнюю секунду. Теперь, чтобы все исправить, им придется отправиться в опасное путешествие и найти возлюбленного принцессы, похищенного драконом злобной Делламорты.- -Качество видео: BDRip
Контейнер: MKV
Стандарт разрешения: 720p
Видео кодек: MPEG4 AVC
Аудио кодек: AC3, DTS
Видео: 1280x688 (1.85:1), 2 228 Kbps, 23.976 fps
Аудио: AC3, 448 Kbps, 6 ch, 48.0 KHz - Rus
Аудио #2: DTS, 1 509 Kbps, 6 ch, 48.0 KHz - Ger
Cубтитры: отсутствуют
General
Unique ID : 209831967268555126086860559031974146398 (0x9DDC2ABA4CEA48538660D1EBCA6AB15E)
Complete name : D:\7.Gn0m.2014.D.BDRip.720p.mkv
Format : Matroska
Format version : Version 4 / Version 2
File size : 2.62 GiB
Duration : 1h 27mn
Overall bit rate : 4 270 Kbps
Encoded date : UTC 2015-02-26 14:01:20
Writing application : mkvmerge v7.3.0 ('Nouages') 64bit built on Oct 22 2014 18:53:34
Writing library : libebml v1.3.0 + libmatroska v1.4.1
DURATION : 01:27:49.056000000
NUMBER_OF_FRAMES : 164658
NUMBER_OF_BYTES : 295067136
_STATISTICS_WRITING_APP : mkvmerge v7.3.0 ('Nouages') 64bit built on Oct 22 2014 18:53:34
_STATISTICS_WRITING_DATE_UT : 2015-02-26 14:01:20
_STATISTICS_TAGS : BPS DURATION NUMBER_OF_FRAMES NUMBER_OF_BYTES
Video
ID : 1
Format : AVC
Format/Info : Advanced Video Codec
Format profile : [email protected]
Format settings, CABAC : Yes
Format settings, ReFrames : 5 frames
Codec ID : V_MPEG4/ISO/AVC
Duration : 1h 27mn
Bit rate : 2 228 Kbps
Width : 1 280 pixels
Height : 688 pixels
Display aspect ratio : 1.85:1
Frame rate mode : Constant
Frame rate : 23.976 fps
Color space : YUV
Chroma subsampling : 4:2:0
Bit depth : 8 bits
Scan type : Progressive
Bits/(Pixel*Frame) : 0.106
Stream size : 1.37 GiB (52%)
Writing library : x264 core 144 r2525 40bb568
Encoding settings : cabac=1 / ref=5 / deblock=1:-1:-1 / analyse=0x3:0x133 / me=umh / subme=7 / psy=1 / psy_rd=1.00:0.15 / mixed_ref=1 / me_range=16 / chroma_me=1 / trellis=1 / 8x8dct=1 / cqm=0 / deadzone=21,11 / fast_pskip=0 / chroma_qp_offset=-3 / threads=18 / lookahead_threads=3 / sliced_threads=0 / nr=0 / decimate=1 / interlaced=0 / bluray_compat=0 / constrained_intra=0 / bframes=3 / b_pyramid=2 / b_adapt=1 / b_bias=0 / direct=1 / weightb=1 / open_gop=0 / weightp=2 / keyint=250 / keyint_min=23 / scenecut=40 / intra_refresh=0 / rc_lookahead=40 / rc=crf / mbtree=1 / crf=20.0 / qcomp=0.60 / qpmin=0 / qpmax=69 / qpstep=4 / ip_ratio=1.40 / aq=1:1.00
Language : German
Default : Yes
Forced : No
Audio #1
ID : 2
Format : AC-3
Format/Info : Audio Coding 3
Mode extension : CM (complete main)
Format settings, Endianness : Big
Codec ID : A_AC3
Duration : 1h 27mn
Bit rate mode : Constant
Bit rate : 448 Kbps
Channel(s) : 6 channels
Channel positions : Front: L C R, Side: L R, LFE
Sampling rate : 48.0 KHz
Bit depth : 16 bits
Compression mode : Lossy
Stream size : 282 MiB (10%)
Language : Russian
Default : Yes
Forced : Yes
Audio #2
ID : 3
Format : DTS
Format/Info : Digital Theater Systems
Mode : 16
Format settings, Endianness : Big
Codec ID : A_DTS
Duration : 1h 27mn
Bit rate mode : Constant
Bit rate : 1 509 Kbps
Channel(s) : 6 channels
Channel positions : Front: L C R, Side: L R, LFE
Sampling rate : 48.0 KHz
Bit depth : 24 bits
Compression mode : Lossy
Stream size : 948 MiB (35%)
Title : DTS-1 510 Kbps
Language : German
Default : No
Forced : No
Menu
00:00:00.000 : en:00:00:00.000
00:08:16.121 : en:00:08:16.121
00:15:27.677 : en:00:15:27.677
00:20:24.014 : en:00:20:24.014
00:27:08.460 : en:00:27:08.460
00:34:14.302 : en:00:34:14.302
00:41:22.021 : en:00:41:22.021
00:48:48.926 : en:00:48:48.926
00:56:41.898 : en:00:56:41.898
01:03:59.919 : en:01:03:59.919
01:12:40.314 : en:01:12:40.314
01:21:23.962 : en:01:21:23.962
Download / Скачать

Хотите скачать бесплатно? Зарегистрируйтесь на сайте (ссылка на регистрацию). Pirat.ca - самый быстрый торрент трекер в рунете!

Как скачивать  ·   Что такое торрент  ·   Рейтинг и ограничения

Пост 27-Фев-2015 23:52 (спустя 16 минут)

Топик был перенесен из форума Мультфильмы (Трюм) в форум Зарубежные полнометражные мультфильмы
Андря
 
Показать сообщения:    
Ответить на тему

Текущее время: Сегодня 18:08

Часовой пояс: GMT + 4



Вы не можете начинать темы
Вы не можете отвечать на сообщения
Вы не можете редактировать свои сообщения
Вы не можете удалять свои сообщения
Вы не можете голосовать в опросах
Вы не можете прикреплять файлы к сообщениям
Вы не можете скачивать файлы

▼ Вниз