ML
     
  Уважаемый Гость!
Вы можете поддержать проект и зарегистрироваться у наших партнеров - онлайн-стратегия MyLands. При регистрации в игре Вы получите код, который сможете активировать после регистрации на pirat.ca и получить 1000 дублонов.

Ваш код:
a6d1ef7ff63e237add5a4c8b21d8aa937c5e9b4b
 
     

Пингвины Мадагаскара / Penguins of Madagascar (Эрик Дарнелл / Eric Darnell, Саймон Дж. Смит / Simon J. Smith) [2014 г., мультфильм, комедия, приключения, семейный, BDRip] Dub (лицензия)

Ответить на тему
 
Автор
Сообщение

Пост 02-Мар-2015 09:16

[Q] 

aleksey99

--Пингвины Мадагаскара / Penguins of Madagascar--«В этот раз они не останутся в тени»-- -Производство: США, DreamWorks Animation, Pacific Data Images (PDI)
Год выпуска: 2014 г.
Жанр: мультфильм, комедия, приключения, семейный
Продолжительность: 01:31:49--Мировая премьера: 8 ноября 2014
Российская премьера: 27 ноября 2014, «Двадцатый Век Фокс СНГ»
Дата выхода DVD: 5 марта 2015, «Двадцатый Век Фокс СНГ»
Дата выхода Blu-Ray: 5 марта 2015, «Двадцатый Век Фокс СНГ»--Перевод: Профессиональный (полное дублирование) [лицензия]--Режиссер: Эрик Дарнелл / Eric Darnell, Саймон Дж. Смит / Simon J. Smith--В ролях: Том МакГрат, Крис Миллер, Кристофер Найтс, Бенедикт Камбербэтч, Петер Стормаре, Джон Малкович, Кен Жонг, Аннет Махендру--Описание: Четвёрка пингвинов-шпионов — Шкипер, Ковальски, Рико и Прапор — объединяется с командой «Северный ветер», помогающей беззащитным животным. Им предстоит остановить злобного осьминога, доктора Октавиуса Брайна, желающего уничтожить этот мир…-- --Качество видео: BDRip
Контейнер: AVI
Видео кодек: XviD
Аудио кодек: AC3
Видео: 720x384 (1.88:1), 23.976 fps, XviD build 50 ~1668 kbps avg, 0.25 bit/pixel
Аудио: 48 kHz, AC3 Dolby Digital, 3/2 (L,C,R,l,r) + LFE ch, ~448 kbps
Cубтитры: отсутствуют
Общее
Полное имя : E:\PPP\Penguins.of.Madagascar.2014.BDRip.1400.avi
Формат : AVI
Формат/Информация : Audio Video Interleave
Размер файла : 1,36 Гбайт
Продолжительность : 1 ч. 31 м.
Общий поток : 2125 Кбит/сек
Программа кодирования : VirtualDubMod 1.5.10.3 | www.virtualdub-fr.org || (build 2550/release)
Библиотека кодирования : VirtualDubMod build 2550/release
Видео
Идентификатор : 0
Формат : MPEG-4 Visual
Профиль формата : Advanced [email protected]
Параметр BVOP формата : 2
Параметр QPel формата : Нет
Параметр GMC формата : Без точки перехода
Параметр матрицы формата : Default (MPEG)
Идентификатор кодека : XVID
Идентификатор кодека/Подсказка : XviD
Продолжительность : 1 ч. 31 м.
Битрейт : 1668 Кбит/сек
Ширина : 720 пикселей
Высота : 384 пикселя
Соотношение сторон : 1,85:1
Частота кадров : 23,976 кадра/сек
Цветовое пространство : YUV
Субдискретизация насыщенности : 4:2:0
Битовая глубина : 8 бит
Тип развёртки : Прогрессивная
Метод сжатия : С потерями
Бит/(Пиксели*Кадры) : 0.252
Размер потока : 1,07 Гбайт (78%)
Библиотека кодирования : XviD 1.2.1 (UTC 2008-12-04)
Аудио
Идентификатор : 1
Формат : AC-3
Формат/Информация : Audio Coding 3
Расширение режима : CM (complete main)
Параметр Endianness формата : Big
Идентификатор кодека : 2000
Продолжительность : 1 ч. 31 м.
Вид битрейта : Постоянный
Битрейт : 448 Кбит/сек
Каналы : 6 каналов
Расположение каналов : Front: L C R, Side: L R, LFE
Частота : 48,0 КГц
Битовая глубина : 16 бит
Метод сжатия : С потерями
Размер потока : 294 Мбайт (21%)
Выравнивание : Разделение по промежуткам
Продолжительность промежутка : 42 мс. (1,00 видеокадр)
Время предзагрузки промежутка : 500 мс.
Трейлер
Download / Скачать

Хотите скачать бесплатно? Зарегистрируйтесь на сайте (ссылка на регистрацию). Pirat.ca - самый быстрый торрент трекер в рунете!

Как скачивать  ·   Что такое торрент  ·   Рейтинг и ограничения

Пост 02-Мар-2015 09:22 (спустя 5 минут)

Топик был перенесен из форума Зарубежное Кино (Трюм) в форум Новинки (HD|DVD|BD| TV|SAT|PDTV| - Rips)
kugesan
 

samata

Морской Волк

210

Пост 02-Мар-2015 11:06 (спустя 1 час 49 минут)

[Q] 

Посмотрим спасибо !COOL!

_________________
[Профиль]  [ЛС] 

svat74

Корсар

Пост 02-Мар-2015 15:53 (спустя 4 часа)

[Q] 

качну для мелкой Супер!
[Профиль]  [ЛС] 

fiona-d

Шкипер

32

Пост 16-Мар-2015 16:03 (спустя 14 дней)

[Q] 

нравятся мне эти шкодные ребята )))) Лови бочку
[Профиль]  [ЛС] 

lexaspirit

Пост 25-Апр-2015 08:49 (спустя 1 месяц 8 дней)

[Q] 

Хороший мультик для просмотра с детьми. Рекомендую

_________________
-------------------- ----------------------
[Профиль]  [ЛС] 

theGavr

Лоцман

Пост 30-Апр-2015 20:16 (спустя 5 дней)

[Q] 

спасибо Лови бочку
[Профиль]  [ЛС] 

Мяут

Лоцман

Пост 14-Май-2015 03:06 (спустя 13 дней)

[Q] 

Одобрямс! ! Пиратка рулез!!!
[Профиль]  [ЛС] 

Ливень

Корсар

Пост 03-Июн-2015 23:07 (спустя 20 дней)

[Q] 

Детям понравилось, глубокого смысла, конечно, нет - но ведь его никто и не ждал... Просто прикольные пингвины
[Профиль]  [ЛС] 

Bozo

Флибустьер

Пост 23-Июн-2015 20:42 (спустя 19 дней)

[Q] 

что-то как-то не очень, на разик может быть, да и то с натягом
[Профиль]  [ЛС] 
Показать сообщения:    
Ответить на тему

Текущее время: Сегодня 13:38

Часовой пояс: GMT + 4



Вы не можете начинать темы
Вы не можете отвечать на сообщения
Вы не можете редактировать свои сообщения
Вы не можете удалять свои сообщения
Вы не можете голосовать в опросах
Вы не можете прикреплять файлы к сообщениям
Вы не можете скачивать файлы

▼ Вниз