ML
     
  Уважаемый Гость!
Вы можете поддержать проект и зарегистрироваться у наших партнеров - онлайн-стратегия MyLands. При регистрации в игре Вы получите код, который сможете активировать после регистрации на pirat.ca и получить 1000 дублонов.

Ваш код:
e93cd9e43017f251127f220889864c05934e61c6
 
     

Флинстоуны: борцы каменного века / The Flintstones and WWE: Stone Age Smackdown (Тони Червоне / Tony Cervone, Спайк Брандт / Spike Brandt) [2015 г., мультфильм, боевик, комедия, приключения, HDRip] MVO (Чистый звук)

Ответить на тему
 
Автор
Сообщение

Пост 03-Мар-2015 21:58

[Q] 

LPPI

-Флинстоуны: борцы каменного века / The Flintstones and WWE: Stone Age Smackdown- Производство: США
Год выпуска: 2015 г.
Жанр: мультфильм, боевик, комедия, приключения
Продолжительность: 00:51:41
Мировая премьера: 17 March 2015
Перевод: Профессиональный (многоголосый, закадровый) [Чистый звук]-Режиссер: Тони Червоне / Tony Cervone, Спайк Брандт / Spike Brandt
В ролях: Джон Сина, Николь Гарсиа, Билл Голдберг, Брианна Гарсиа, СМ Панк, Брайан Даниэльсон, Винс МакМахон-Описание: Когда Фред теряет отпускные деньги своей семьи, он решает вернуть их с помощью спортивного шоу - рестлинга.- -Качество видео: HDRip
Контейнер: AVI
Видео кодек: XviD
Аудио кодек: AC3
Видео: 720x400 (1.80:1), 23.976 fps, XviD build 50 ~1730 kbps avg, 0.25 bit/pixel
Аудио: 44.1 kHz, AC3 Dolby Digital, 2/0 (L,R) ch, ~192 kbps
Cубтитры: отсутствуют
General
Complete name : D:\The.Flintstones.and.WWE.Stone.Age.Smackdown.2015.D.HDRip.700MB.avi
Format : AVI
Format/Info : Audio Video Interleave
File size : 714 MiB
Duration : 51mn 41s
Overall bit rate : 1 932 Kbps
Writing application : VirtualDubMod 1.5.10.3 | www.virtualdub-fr.org || (build 2550/release)
Writing library : VirtualDubMod build 2550/release
Video
ID : 0
Format : MPEG-4 Visual
Format profile : Advanced [email protected]
Format settings, BVOP : 2
Format settings, QPel : No
Format settings, GMC : No warppoints
Format settings, Matrix : Custom
Codec ID : XVID
Codec ID/Hint : XviD
Duration : 51mn 41s
Bit rate : 1 731 Kbps
Width : 720 pixels
Height : 400 pixels
Display aspect ratio : 16:9
Frame rate : 23.976 fps
Color space : YUV
Chroma subsampling : 4:2:0
Bit depth : 8 bits
Scan type : Progressive
Compression mode : Lossy
Bits/(Pixel*Frame) : 0.251
Stream size : 640 MiB (90%)
Writing library : XviD 1.2.1 (UTC 2008-12-04)
Audio
ID : 1
Format : AC-3
Format/Info : Audio Coding 3
Mode extension : CM (complete main)
Format settings, Endianness : Big
Codec ID : 2000
Duration : 51mn 38s
Bit rate mode : Constant
Bit rate : 192 Kbps
Channel(s) : 2 channels
Channel positions : Front: L R
Sampling rate : 44.1 KHz
Bit depth : 16 bits
Compression mode : Lossy
Delay relative to video : 3s 0ms
Stream size : 70.9 MiB (10%)
Alignment : Split accross interleaves
Interleave, duration : 42 ms (1.00 video frame)
Interleave, preload duratio : 500 ms
Download / Скачать

Хотите скачать бесплатно? Зарегистрируйтесь на сайте (ссылка на регистрацию). Pirat.ca - самый быстрый торрент трекер в рунете!

Как скачивать  ·   Что такое торрент  ·   Рейтинг и ограничения

CHiSTiY

Морской Волк

28

Пост 03-Мар-2015 22:47 (спустя 49 минут)

[Q] 

Спасибо!!! Лови бочку

_________________
[Профиль]  [ЛС] 

EDVAR

Легенда

Пост 03-Мар-2015 23:20 (спустя 32 минуты)

[Q] 

Благодарен!!!Мои довольные,детвора.

_________________
"Как других судить-вы судьи.Как себя-вы адвокаты"
[Профиль]  [ЛС] 

gnezd77

Флибустьер

Пост 04-Мар-2015 00:11 (спустя 50 минут)

[Q] 

Спасибо!!! Заценим.... Пиратка рулез!!!
[Профиль]  [ЛС] 

Airat9000

Штурман

Пост 04-Мар-2015 03:49 (спустя 3 часа)

[Q] 

wwe и сюда забралас)) беру! Оценим.
[Профиль]  [ЛС] 

Han.M

Флибустьер

Пост 04-Мар-2015 09:56 (спустя 6 часов)

[Q] 

Спасибо, посмотрим
[Профиль]  [ЛС] 

Bos_Man

Штурман

Пост 04-Мар-2015 11:31 (спустя 1 час 34 минуты)

[Q] 

Спасибо. Лови бочку
[Профиль]  [ЛС] 

madvados1

Морской Волк

Пост 04-Мар-2015 16:34 (спустя 5 часов)

[Q] 

Спасибо, глянем !COOL! Лови бочку
[Профиль]  [ЛС] 

Apostle358

Корсар

151

Пост 04-Мар-2015 23:00 (спустя 6 часов)

[Q] 

Ну и как мультфильм то? Может кто дать адекватную оценку?
[Профиль]  [ЛС] 

Блэйз

Лоцман

Пост 05-Мар-2015 22:30 (спустя 23 часа)

[Q] 

Та версия что с вшитыми сабами?
[Профиль]  [ЛС] 

Agat

Корсар

Пост 05-Мар-2015 23:27 (спустя 57 минут)

[Q] 

Блин, как перевод то никто не написал, ща заценим =)

_________________
Не для Нас, команда - Вольно, отдохнём, когда раздавят!!!
[Профиль]  [ЛС] 
Показать сообщения:    
Ответить на тему

Текущее время: Сегодня 04:29

Часовой пояс: GMT + 4



Вы не можете начинать темы
Вы не можете отвечать на сообщения
Вы не можете редактировать свои сообщения
Вы не можете удалять свои сообщения
Вы не можете голосовать в опросах
Вы не можете прикреплять файлы к сообщениям
Вы не можете скачивать файлы

▼ Вниз