ML
     
  Уважаемый Гость!
Вы можете поддержать проект и зарегистрироваться у наших партнеров - онлайн-стратегия MyLands. При регистрации в игре Вы получите код, который сможете активировать после регистрации на pirat.ca и получить 1000 дублонов.

Ваш код:
2932e5898d0a27592397f70b82a5834d1e70ea19
 
     

Король Лев / The Lion King (Стив Лотер / Steve Loter) [1994 г., мультфильм, мюзикл, драма, приключения, семейный, BDRip] Dub

Ответить на тему
 
Автор
Сообщение

Пост 15-Мар-2015 23:45

[Q] 

LPPI

-Король Лев / The Lion King- Производство: США, Walt Disney Pictures, Walt Disney Feature Animation
Год выпуска: 1994 г.
Жанр: мультфильм, мюзикл, драма, приключения, семейный
Продолжительность: 01:28:23
Мировая премьера: 15 июня 1994
Российская премьера: 22 марта 2012, «WDSSPR»
Дата выхода DVD: 24 апреля 2012, «Уолт Дисней Компани СНГ»
Дата выхода Blu-Ray: 24 апреля 2012, «Уолт Дисней Компани СНГ»-Перевод: Профессиональный (полное дублирование)-Режиссер: Роджер Аллерс / Roger Allers, Роб Минкофф / Rob Minkoff
В ролях: Натан Лэйн, Эрни Сабелла, Джули Кавнер, Джерри Стиллер, Мэттью Бродерик, Роберт Гийом, Вупи Голдберг, Чич Марин, Джим Каммингс, Нив Кэмпбелл, Лиз Колэуэй, Мишель Хорн, Эшли Эднер, Сюзанн Плешетт, Энди Дик, Райан О`Донохью, Джонатан Тейлор Томас, Джеймс Эрл Джонс, Джереми Айронс, Никета Калам, Мойра Келли-Описание: У величественного Короля-Льва Муфасы рождается наследник по имени Симба. Уже в детстве любознательный малыш становится жертвой интриг своего завистливого дяди Шрама, мечтающего о власти.
Симба познаёт горе утраты, предательство и изгнание, но в конце концов обретает верных друзей и находит любимую. Закалённый испытаниями, он в нелёгкой борьбе отвоёвывает своё законное место в «Круге жизни», осознав, что значит быть настоящим Королём.- -Качество видео: BDRip
Контейнер: AVI
Видео кодек: XviD
Аудио кодек: AC3
Видео: 704x400 (1.76:1), 23.976 fps, XviD build 64 ~1960 kbps avg, 0.29 bit/pixel
Аудио: Russian: 48 kHz, AC3 Dolby Digital, 3/2 (L,C,R,l,r) + LFE ch, ~384 kbps
Cубтитры: нет-
General
Complete name : D:\Korol.Lev.1994.XviD.BDRip.avi
Format : AVI
Format/Info : Audio Video Interleave
File size : 1.45 GiB
Duration : 1h 28mn
Overall bit rate : 2 354 Kbps
Writing application : VirtualDubMod 1.5.10.2 (build 2542/release)
Video
ID : 0
Format : MPEG-4 Visual
Format profile : Advanced [email protected]
Format settings, BVOP : 1
Format settings, QPel : No
Format settings, GMC : No warppoints
Format settings, Matrix : Custom
Codec ID : XVID
Codec ID/Hint : XviD
Duration : 1h 28mn
Bit rate : 1 961 Kbps
Width : 704 pixels
Height : 400 pixels
Display aspect ratio : 16:9
Frame rate : 23.976 fps
Color space : YUV
Chroma subsampling : 4:2:0
Bit depth : 8 bits
Scan type : Progressive
Compression mode : Lossy
Bits/(Pixel*Frame) : 0.290
Stream size : 1.21 GiB (83%)
Writing library : XviD 64
Audio
ID : 1
Format : AC-3
Format/Info : Audio Coding 3
Mode extension : CM (complete main)
Format settings, Endianness : Big
Codec ID : 2000
Duration : 1h 28mn
Bit rate mode : Constant
Bit rate : 384 Kbps
Channel(s) : 6 channels
Channel positions : Front: L C R, Side: L R, LFE
Sampling rate : 48.0 KHz
Bit depth : 16 bits
Compression mode : Lossy
Stream size : 243 MiB (16%)
Alignment : Split accross interleaves
Interleave, duration : 42 ms (1.00 video frame)
Interleave, preload duratio : 500 ms
-Скриншоты:-- -
Download / Скачать

Хотите скачать бесплатно? Зарегистрируйтесь на сайте (ссылка на регистрацию). Pirat.ca - самый быстрый торрент трекер в рунете!

Как скачивать  ·   Что такое торрент  ·   Рейтинг и ограничения

Пост 16-Мар-2015 04:32 (спустя 4 часа)

Топик был перенесен из форума Мультфильмы (Трюм) в форум Зарубежные полнометражные мультфильмы
Андря
 
Показать сообщения:    
Ответить на тему

Текущее время: Сегодня 08:01

Часовой пояс: GMT + 4



Вы не можете начинать темы
Вы не можете отвечать на сообщения
Вы не можете редактировать свои сообщения
Вы не можете удалять свои сообщения
Вы не можете голосовать в опросах
Вы не можете прикреплять файлы к сообщениям
Вы не можете скачивать файлы

▼ Вниз