ML
     
  Уважаемый Гость!
Вы можете поддержать проект и зарегистрироваться у наших партнеров - онлайн-стратегия MyLands. При регистрации в игре Вы получите код, который сможете активировать после регистрации на pirat.ca и получить 1000 дублонов.

Ваш код:
a6d1ef7ff63e237add5a4c8b21d8aa937c5e9b4b
 
     

Город героев / Big Hero 6 (Дон Холл / Don Hall, Крис Уильямс / Chris Williams) [2014 г., мультфильм, фантастика, комедия, семейный, боевик, HDRip] Dub (Лицензия) + Dub (Ukr) + Original (Eng)

Ответить на тему
 
Автор
Сообщение

Пост 17-Мар-2015 20:47

[Q] 

aleksey99

--Город героев / Big Hero 6-- Производство: США, Walt Disney Animation Studios, Walt Disney Pictures
Год выпуска: 2014 г.
Жанр: мультфильм, фантастика, комедия, семейный, боевик
Продолжительность: 01:41:52--Мировая премьера: 23 октября 2014
Российская премьера: 25 октября 2014, «WDSSPR
Дата выхода DVD: 3 марта 2015, «Уолт Дисней Компани СНГ»
Дата выхода Blu-Ray: 3 марта 2015, «Уолт Дисней Компани СНГ»--Перевод 1: Профессиональный (полное дублирование) (Лицензия)
Перевод 2: Профессиональный (полное дублирование) [Украинский]
Оригинальный аудиопоток: английский--Режиссер: Дон Холл / Don Hall, Крис Уильямс / Chris Williams--Роли озвучивали: Райан Поттер, Скотт Эдсит, Дэниэл Хенни, ТиДжей Миллер, Джейми Чанг, Дэймон Уайанс мл., Дженезис Родригез, Джеймс Кромуэлл, Алан Тьюдик, Майя Рудольф--Описание: Юный Хиро Хамада — прирожденный изобретатель и гений конструирования роботов. Вместе со старшим братом Тадаши они воплощают в жизнь самые передовые идеи в Техническом университете города будущего Сан-Франсокио. После серии загадочных событий друзья оказываются в центре коварного заговора. Отчаявшись, Хиро решает использовать веселого и добродушного экспериментального робота Бэймакса, перепрограммировав его в неуязвимую боевую машину.-- --Качество видео: HDRip
Контейнер: AVI
Видео кодек: XviD
Аудио кодек: AC3
Видео: 720x304 (2.37:1), 23.976 fps, XviD MPEG-4 ~1826 kbps avg, 0.35 bit/pixel
Аудио 1: 48 kHz, AC3 Dolby Digital, 3/2 (L,C,R,l,r) + LFE ch, ~448 kbps Rus
Аудио 2: 48 kHz, AC3 Dolby Digital, 3/2 (L,C,R,l,r) + LFE ch, ~384 kbps Ukr
Аудио 3: 48 kHz, AC3 Dolby Digital, 6 ch, ~384.00 kbps avg Eng
Cубтитры: Отсутствуют
-
Общее
Полное имя : H:\Torrent2\Bighero.6.2014.D.HDRip.2.18GB.avi
Формат : AVI
Формат/Информация : Audio Video Interleave
Профиль формата : OpenDML
Размер файла : 2,18 Гбайт
Продолжительность : 1 ч. 41 м.
Общий поток : 3066 Кбит/сек
Программа кодирования : VirtualDubMod 1.5.10.3 | www.virtualdub-fr.org || (build 2550/release)
Библиотека кодирования : VirtualDubMod build 2550/release
Видео
Идентификатор : 0
Формат : MPEG-4 Visual
Профиль формата : Advanced [email protected]
Параметр BVOP формата : 2
Параметр QPel формата : Нет
Параметр GMC формата : Без точки перехода
Параметр матрицы формата : Default (MPEG)
Идентификатор кодека : XVID
Идентификатор кодека/Подсказка : XviD
Продолжительность : 1 ч. 41 м.
Битрейт : 1826 Кбит/сек
Ширина : 720 пикселей
Высота : 304 пикселя
Соотношение сторон : 2,35:1
Частота кадров : 23,976 кадра/сек
Цветовое пространство : YUV
Субдискретизация насыщенности : 4:2:0
Битовая глубина : 8 бит
Тип развёртки : Прогрессивная
Метод сжатия : С потерями
Бит/(Пиксели*Кадры) : 0.348
Размер потока : 1,30 Гбайт (60%)
Библиотека кодирования : XviD 73
Аудио #1
Идентификатор : 1
Формат : AC-3
Формат/Информация : Audio Coding 3
Расширение режима : CM (complete main)
Параметр Endianness формата : Big
Идентификатор кодека : 2000
Продолжительность : 1 ч. 41 м.
Вид битрейта : Постоянный
Битрейт : 448 Кбит/сек
Каналы : 6 каналов
Расположение каналов : Front: L C R, Side: L R, LFE
Частота : 48,0 КГц
Битовая глубина : 16 бит
Метод сжатия : С потерями
Размер потока : 326 Мбайт (15%)
Выравнивание : Разделение по промежуткам
Продолжительность промежутка : 42 мс. (1,00 видеокадр)
Время предзагрузки промежутка : 500 мс.
Заголовок : Русский
Аудио #2
Идентификатор : 2
Формат : AC-3
Формат/Информация : Audio Coding 3
Расширение режима : CM (complete main)
Параметр Endianness формата : Big
Идентификатор кодека : 2000
Продолжительность : 1 ч. 41 м.
Вид битрейта : Постоянный
Битрейт : 384 Кбит/сек
Каналы : 6 каналов
Расположение каналов : Front: L C R, Side: L R, LFE
Частота : 48,0 КГц
Битовая глубина : 16 бит
Метод сжатия : С потерями
Размер потока : 280 Мбайт (13%)
Выравнивание : Разделение по промежуткам
Продолжительность промежутка : 42 мс. (1,00 видеокадр)
Время предзагрузки промежутка : 500 мс.
Заголовок : Украинский
Аудио #3
Идентификатор : 3
Формат : AC-3
Формат/Информация : Audio Coding 3
Расширение режима : CM (complete main)
Параметр Endianness формата : Big
Идентификатор кодека : 2000
Продолжительность : 1 ч. 41 м.
Вид битрейта : Постоянный
Битрейт : 384 Кбит/сек
Каналы : 6 каналов
Расположение каналов : Front: L C R, Side: L R, LFE
Частота : 48,0 КГц
Битовая глубина : 16 бит
Метод сжатия : С потерями
Размер потока : 280 Мбайт (13%)
Выравнивание : Разделение по промежуткам
Продолжительность промежутка : 42 мс. (1,00 видеокадр)
Время предзагрузки промежутка : 500 мс.
Заголовок : Английский
Трейлер
Download / Скачать

Хотите скачать бесплатно? Зарегистрируйтесь на сайте (ссылка на регистрацию). Pirat.ca - самый быстрый торрент трекер в рунете!

Как скачивать  ·   Что такое торрент  ·   Рейтинг и ограничения

Jek@

Легенда

Пост 18-Мар-2015 16:46 (спустя 19 часов)

[Q] 

Спасибо!!! .
[Профиль]  [ЛС] 

kudrjavy

Флибустьер

Пост 20-Мар-2015 22:37 (спустя 2 дня 5 часов)

[Q] 

Интересный мульт,спасибо за труды!!! Спасибо!!!

_________________
Девушки-как печеньки: ломаются,пока не намокнут...
[Профиль]  [ЛС] 

iap

Корсар

Пост 15-Апр-2015 22:58 (спустя 26 дней)

[Q] 

Большое спасибо!
[Профиль]  [ЛС] 

ivv

Шкипер

Пост 17-Апр-2015 18:02 (спустя 1 день 19 часов)

[Q] 

Очень бодрый мультфильм! Интересно смотреть до самого конца. Робот получился в лучших традициях Валл-И.
[Профиль]  [ЛС] 

Пост 18-Апр-2015 22:25 (спустя 1 день 4 часа)

Топик был перенесен из форума Новинки (HD|DVD|BD| TV|SAT|PDTV| - Rips) в форум Зарубежные полнометражные мультфильмы
LPPI
 

andreiex

Шкипер

Пост 21-Апр-2015 20:01 (спустя 4 дня)

[Q] 

Неожиданно понравился, Спасибо!!! Всем качать!!!
Хотя робот похож на кунгфу-панду :)
[Профиль]  [ЛС] 
Показать сообщения:    
Ответить на тему

Текущее время: Сегодня 13:35

Часовой пояс: GMT + 4



Вы не можете начинать темы
Вы не можете отвечать на сообщения
Вы не можете редактировать свои сообщения
Вы не можете удалять свои сообщения
Вы не можете голосовать в опросах
Вы не можете прикреплять файлы к сообщениям
Вы не можете скачивать файлы

▼ Вниз