ML
     
  Уважаемый Гость!
Вы можете поддержать проект и зарегистрироваться у наших партнеров - онлайн-стратегия MyLands. При регистрации в игре Вы получите код, который сможете активировать после регистрации на pirat.ca и получить 1000 дублонов.

Ваш код:
500cb7bd8d2cec9a8aba647a87ce41c4b76f06bd
 
     

Песнь моря / Song of the Sea (Томм Мур / Tomm Moore) [2014 г., мультфильм, фэнтези, семейный, BDRip-AVC] MVO (CatBug TV) + Original (Eng) + Sub (Rus, Eng)

Ответить на тему
 
Автор
Сообщение

Пост 27-Мар-2015 01:07

[Q] 

LPPI

-Песнь моря / Song of the Sea- Производство: Ирландия, Дания, Бельгия, Люксембург, Франция, Big Farm, Cartoon Saloon, Digital Graphics
Год выпуска: 2014 г.
Жанр: мультфильм, фэнтези, семейный
Продолжительность: 01:33:59
Мировая премьера: 6 сентября 2014-Перевод: Профессиональный (многоголосный, закадровый) [CatBug TV]
Оригинальный аудиопоток: английский-Режиссер: Томм Мур / Tomm Moore
В ролях: Брендан Глисон, Финола Флэнаган, Пэт Шорт, Дэвид Роул, Лиза Хэннигэн, Джон Кенни-Описание: Сюжет повествует о последней «селки», которая может перевоплощаться из тюленя в человека, и ее путешествии к морю.- -Качество видео: BDRip-AVC
Контейнер: MKV
Видео кодек: MPEG4 AVC
Аудио кодек: AC3
Видео: 1024x554 (1.85:1), 23.976 fps, ~2 618 kbps avg, 0.192 bit/pixel
Аудио: Russian: 48 kHz, AC3 Dolby Digital, 2/0 (L,R) ch, ~192 kbps
Аудио #2: English: 48 kHz, AC3 Dolby Digital, 3/2 (L,C,R,l,r) + LFE ch, ~448 kbps
Cубтитры: Русские, английские-
General
Unique ID : 201311431902411164168617777999958619935 (0x97732BE66E13958BAF06E4AC80B5B71F)
Complete name : D:\Song of the Sea.2014.BDRip(AVC).2.14Gb.mkv
Format : Matroska
Format version : Version 4 / Version 2
File size : 2.14 GiB
Duration : 1h 33mn
Overall bit rate : 3 257 Kbps
Movie name : Song of the Sea 2014
Encoded date : UTC 2015-03-25 14:23:37
Writing application : mkvmerge v7.3.0 ('Nouages') 64bit built on Oct 22 2014 18:53:34
Writing library : libebml v1.3.0 + libmatroska v1.4.1
DURATION : 01:33:59.584000000
NUMBER_OF_FRAMES : 176237
NUMBER_OF_BYTES : 315816704
_STATISTICS_WRITING_APP : mkvmerge v7.3.0 ('Nouages') 64bit built on Oct 22 2014 18:53:34
_STATISTICS_WRITING_DATE_UT : 2015-03-25 14:23:37
_STATISTICS_TAGS : BPS DURATION NUMBER_OF_FRAMES NUMBER_OF_BYTES
Video
ID : 1
Format : AVC
Format/Info : Advanced Video Codec
Format profile : [email protected]
Format settings, CABAC : Yes
Format settings, ReFrames : 14 frames
Codec ID : V_MPEG4/ISO/AVC
Duration : 1h 33mn
Bit rate : 2 618 Kbps
Width : 1 024 pixels
Height : 554 pixels
Display aspect ratio : 1.85:1
Frame rate mode : Constant
Frame rate : 23.976 fps
Color space : YUV
Chroma subsampling : 4:2:0
Bit depth : 8 bits
Scan type : Progressive
Bits/(Pixel*Frame) : 0.192
Stream size : 1.68 GiB (78%)
Writing library : x264 core 144 r2525bm 40bb568
Encoding settings : cabac=1 / ref=14 / deblock=1:1:1 / analyse=0x3:0x133 / me=umh / subme=10 / psy=1 / psy_rd=0.40:0.00 / mixed_ref=1 / me_range=24 / chroma_me=1 / trellis=2 / 8x8dct=1 / cqm=0 / deadzone=21,11 / fast_pskip=1 / chroma_qp_offset=-2 / threads=3 / lookahead_threads=1 / sliced_threads=0 / nr=0 / decimate=1 / interlaced=0 / bluray_compat=0 / constrained_intra=0 / bframes=10 / b_pyramid=2 / b_adapt=2 / b_bias=0 / direct=3 / weightb=1 / open_gop=0 / weightp=2 / keyint=250 / keyint_min=23 / scenecut=40 / intra_refresh=0 / rc_lookahead=60 / rc=2pass / mbtree=1 / bitrate=2618 / ratetol=1.0 / qcomp=0.60 / qpmin=0 / qpmax=69 / qpstep=4 / cplxblur=20.0 / qblur=0.5 / ip_ratio=1.40 / aq=1:0.60
Language : English
Default : Yes
Forced : No
DURATION : 01:33:59.343000000
NUMBER_OF_FRAMES : 135207
NUMBER_OF_BYTES : 1843458423
_STATISTICS_WRITING_APP : mkvmerge v7.3.0 ('Nouages') 64bit built on Oct 22 2014 18:53:34
_STATISTICS_WRITING_DATE_UT : 2015-03-25 14:23:37
_STATISTICS_TAGS : BPS DURATION NUMBER_OF_FRAMES NUMBER_OF_BYTES
Audio #1
ID : 2
Format : AC-3
Format/Info : Audio Coding 3
Mode extension : CM (complete main)
Format settings, Endianness : Big
Codec ID : A_AC3
Duration : 1h 33mn
Bit rate mode : Constant
Bit rate : 192 Kbps
Channel(s) : 2 channels
Channel positions : Front: L R
Sampling rate : 48.0 KHz
Bit depth : 16 bits
Compression mode : Lossy
Stream size : 129 MiB (6%)
Default : Yes
Forced : No
Audio #2
ID : 3
Format : AC-3
Format/Info : Audio Coding 3
Mode extension : CM (complete main)
Format settings, Endianness : Big
Codec ID : A_AC3
Duration : 1h 33mn
Bit rate mode : Constant
Bit rate : 448 Kbps
Channel(s) : 6 channels
Channel positions : Front: L C R, Side: L R, LFE
Sampling rate : 48.0 KHz
Bit depth : 16 bits
Compression mode : Lossy
Stream size : 301 MiB (14%)
Default : No
Forced : No
Text #1
ID : 4
Format : UTF-8
Codec ID : S_TEXT/UTF8
Codec ID/Info : UTF-8 Plain Text
Title : Sub
Language : Russian
Default : No
Forced : No
Text #2
ID : 5
Format : UTF-8
Codec ID : S_TEXT/UTF8
Codec ID/Info : UTF-8 Plain Text
Language : English
Default : No
Forced : No
Menu
00:00:00.000 : en:00:00:00.000
00:04:26.057 : en:00:04:26.057
00:09:28.943 : en:00:09:28.943
00:13:23.761 : en:00:13:23.761
00:18:49.587 : en:00:18:49.587
00:23:29.742 : en:00:23:29.742
00:26:30.339 : en:00:26:30.339
00:31:07.157 : en:00:31:07.157
00:35:10.400 : en:00:35:10.400
00:39:53.308 : en:00:39:53.308
00:44:19.115 : en:00:44:19.115
00:48:53.055 : en:00:48:53.055
00:52:21.347 : en:00:52:21.347
00:56:24.673 : en:00:56:24.673
00:59:58.094 : en:00:59:58.094
01:04:53.223 : en:01:04:53.223
01:08:52.462 : en:01:08:52.462
01:12:59.709 : en:01:12:59.709
01:17:48.289 : en:01:17:48.289
01:26:47.244 : en:01:26:47.244
-Скриншоты:-- -
Download / Скачать

Хотите скачать бесплатно? Зарегистрируйтесь на сайте (ссылка на регистрацию). Pirat.ca - самый быстрый торрент трекер в рунете!

Как скачивать  ·   Что такое торрент  ·   Рейтинг и ограничения

LPPI ®

137537

Пост 27-Мар-2015 01:08 (спустя 53 секунды)

[Q] 

Мне мульт понравился. Советую не только детям. Хотя для них 100 % подойдёт Всем качать!!! Супер!
[Профиль]  [ЛС] 

clavik21

Мичман

674

Пост 27-Мар-2015 01:46 (спустя 37 минут)

[Q] 

Автору респект!!! Одобрямс!

_________________
[Профиль]  [ЛС] 

Пост 27-Мар-2015 08:59 (спустя 7 часов)

Топик был перенесен из форума Мультфильмы (Трюм) в форум Зарубежные полнометражные мультфильмы
Андря
 

activ1

Корсар

Пост 28-Мар-2015 19:26 (спустя 1 день 17 часов)

[Q] 

Пиратка рулит!
Спасибо!!!
[Профиль]  [ЛС] 
Показать сообщения:    
Ответить на тему

Текущее время: Сегодня 01:47

Часовой пояс: GMT + 4



Вы не можете начинать темы
Вы не можете отвечать на сообщения
Вы не можете редактировать свои сообщения
Вы не можете удалять свои сообщения
Вы не можете голосовать в опросах
Вы не можете прикреплять файлы к сообщениям
Вы не можете скачивать файлы

▼ Вниз