ML
     
  Уважаемый Гость!
Вы можете поддержать проект и зарегистрироваться у наших партнеров - онлайн-стратегия MyLands. При регистрации в игре Вы получите код, который сможете активировать после регистрации на pirat.ca и получить 1000 дублонов.

Ваш код:
8b752b428cf60a012c159dcae592cd1392170115
 
     

Феи: Легенда о чудовище / Legend of the NeverBeast (Стив Лотер / Steve Loter) [2014 г., мультфильм, фэнтези, приключения, семейный, BDRip-AVC] Dub (Лицензия) + Original (Eng) + Sub (Rus, Eng) [internal release]

Ответить на тему
 
Автор
Сообщение

Пост 28-Мар-2015 15:29

[Q] 

LPPI

-Феи: Легенда о чудовище / Legend of the NeverBeast- Производство: США, DisneyToon Studios, Prana Studios
Год выпуска: 2014 г.
Жанр: мультфильм, фэнтези, приключения, семейный
Продолжительность: 01:16:14
Мировая премьера: 12 декабря 2014
Российская премьера: 18 декабря 2014, «WDSSPR»
Дата выхода DVD: 31 марта 2015, «Уолт Дисней Компани СНГ», «Lizard Cinema Trade»
Дата выхода Blu-Ray: 31 марта 2015, «Уолт Дисней Компани СНГ», «Lizard Cinema Trade»-Перевод: Профессиональный (полное дублирование) [Лицензия]
Оригинальный аудиопоток: английский-Режиссер: Стив Лотер / Steve Loter
В ролях: Мэй Уитман, Джиннифер Гудвин, Розарио Доусон, Люси Лью, Томас Леннон, Рэйвен, Памела Адлон, Меган Хилти, Мелани Браун-Описание: Анимационная сказка расскажет удивительную историю о веселой и талантливой фее Фауне, которая убеждена в том, что о книге нельзя судить по ее обложке, впрочем, как и о животном по его клыкам, поэтому она дружит с таинственным существом громадных размеров из Нетландии по прозвищу Чудовище.
В это время группа волшебных фей разведки не настолько уверены в этом страшном звере и намереваются захватить его прежде, чем он уничтожит их дома. Они хотят отправиться на поиски Чудовища. Фауна, чтобы спасти своего нового друга, остается лишь доказать всем, что он — существо доброе и не собирается вредить другим…- -Качество видео: BDRip-AVC
Контейнер: MKV
Видео кодек: MPEG4 AVC
Аудио кодек: AC3
Видео: 1024x576 (16:9), 23.976 fps, 2 776 Kbps, 0.196 bit/pix
Аудио: Russian: 48 kHz, AC3, 3/2 (L,C,R,l,r) + LFE ch, ~448.00 kbps avg
Аудио #2: English: 48 kHz, AC3, 3/2 (L,C,R,l,r) + LFE ch, ~448.00 kbps avg
Cубтитры: Russian, English
Формат субтитров: softsub (SRT)-
x264 [info]: frame I:1124 Avg QP:14.45 size:129799
x264 [info]: frame P:29227 Avg QP:17.54 size: 29499
x264 [info]: frame B:79331 Avg QP:19.14 size: 7306
General
Unique ID : 209449086679405585854154504864314441888 (0x9D926D41D99EE6D6AEF8489BB1C040A0)
Complete name : C:\Users\Ivan\Desktop\Legend.of.the.NeverBeast.2014.BDRip-AVC.mkv
Format : Matroska
Format version : Version 4 / Version 2
File size : 1.96 GiB
Duration : 1h 16mn
Overall bit rate : 3 675 Kbps
Movie name : Rip by LPPI
Encoded date : UTC 2015-03-28 11:16:48
Writing application : mkvmerge v7.8.0 ('River Man') 64bit built on Mar 27 2015 16:31:37
Writing library : libebml v1.3.1 + libmatroska v1.4.2
DURATION : 01:06:49.009000000
NUMBER_OF_FRAMES : 772
NUMBER_OF_BYTES : 34469
_STATISTICS_WRITING_APP : mkvmerge v7.8.0 ('River Man') 64bit built on Mar 27 2015 16:31:37
_STATISTICS_WRITING_DATE_UT : 2015-03-28 11:16:48
_STATISTICS_TAGS : BPS DURATION NUMBER_OF_FRAMES NUMBER_OF_BYTES
Video
ID : 1
Format : AVC
Format/Info : Advanced Video Codec
Format profile : [email protected]
Format settings, CABAC : Yes
Format settings, ReFrames : 7 frames
Codec ID : V_MPEG4/ISO/AVC
Duration : 1h 16mn
Bit rate : 2 776 Kbps
Width : 1 024 pixels
Height : 576 pixels
Display aspect ratio : 16:9
Frame rate mode : Constant
Frame rate : 23.976 fps
Color space : YUV
Chroma subsampling : 4:2:0
Bit depth : 8 bits
Scan type : Progressive
Bits/(Pixel*Frame) : 0.196
Stream size : 1.44 GiB (74%)
Title : Феи: Легенда о чудовище / Tinkerbell And The Legend Of The Neverbeast
Writing library : x264 core 130 r2273 b3065e6
Encoding settings : cabac=1 / ref=7 / deblock=1:-3:-3 / analyse=0x3:0x133 / me=umh / subme=10 / psy=1 / psy_rd=1.00:0.15 / mixed_ref=0 / me_range=32 / chroma_me=1 / trellis=2 / 8x8dct=1 / cqm=0 / deadzone=21,11 / fast_pskip=0 / chroma_qp_offset=-3 / threads=12 / lookahead_threads=2 / sliced_threads=0 / nr=0 / decimate=0 / interlaced=0 / bluray_compat=0 / constrained_intra=0 / bframes=7 / b_pyramid=2 / b_adapt=2 / b_bias=0 / direct=3 / weightb=1 / open_gop=0 / weightp=2 / keyint=250 / keyint_min=23 / scenecut=40 / intra_refresh=0 / rc=2pass / mbtree=0 / bitrate=2776 / ratetol=1.0 / qcomp=0.60 / qpmin=0 / qpmax=69 / qpstep=4 / cplxblur=20.0 / qblur=0.5 / ip_ratio=1.40 / pb_ratio=1.30 / aq=1:1.00
Language : English
Default : Yes
Forced : Yes
DURATION : 01:16:14.661000000
NUMBER_OF_FRAMES : 109682
NUMBER_OF_BYTES : 1587650338
_STATISTICS_WRITING_APP : mkvmerge v7.8.0 ('River Man') 64bit built on Mar 27 2015 16:31:37
_STATISTICS_WRITING_DATE_UT : 2015-03-28 11:16:48
_STATISTICS_TAGS : BPS DURATION NUMBER_OF_FRAMES NUMBER_OF_BYTES
Audio #1
ID : 2
Format : AC-3
Format/Info : Audio Coding 3
Mode extension : CM (complete main)
Format settings, Endianness : Big
Codec ID : A_AC3
Duration : 1h 16mn
Bit rate mode : Constant
Bit rate : 448 Kbps
Channel(s) : 6 channels
Channel positions : Front: L C R, Side: L R, LFE
Sampling rate : 48.0 KHz
Bit depth : 16 bits
Compression mode : Lossy
Stream size : 244 MiB (12%)
Title : Dub (Лицензия)
Language : Russian
Default : Yes
Forced : Yes
Audio #2
ID : 3
Format : AC-3
Format/Info : Audio Coding 3
Mode extension : CM (complete main)
Format settings, Endianness : Big
Codec ID : A_AC3
Duration : 1h 16mn
Bit rate mode : Constant
Bit rate : 448 Kbps
Channel(s) : 6 channels
Channel positions : Front: L C R, Side: L R, LFE
Sampling rate : 48.0 KHz
Bit depth : 16 bits
Compression mode : Lossy
Stream size : 244 MiB (12%)
Language : English
Default : No
Forced : No
Text #1
ID : 4
Format : UTF-8
Codec ID : S_TEXT/UTF8
Codec ID/Info : UTF-8 Plain Text
Language : Russian
Default : No
Forced : No
Text #2
ID : 5
Format : UTF-8
Codec ID : S_TEXT/UTF8
Codec ID/Info : UTF-8 Plain Text
Language : English
Default : No
Forced : No
Menu
00:00:00.000 : en:1. Awakening The Beast
00:03:08.188 : en:2. Baby Hawk
00:10:55.071 : en:3. A Great Discovery
00:16:45.087 : en:4. An Understanding
00:20:26.684 : en:5. Making Friends
00:24:20.501 : en:6. Tower Building
00:30:58.732 : en:7. Introducing Gruff
00:34:42.038 : en:8. Fawn's Expertise
00:38:09.245 : en:9. The Beast's Safety
00:41:13.012 : en:10. The Search Begins
00:44:39.468 : en:11. Transformation
00:49:54.992 : en:12. Learning The Truth
00:53:05.766 : en:13. Fighting The Storm
00:57:07.883 : en:14. Saving Pixie Hollow
01:02:54.688 : en:15. Going Home
01:07:54.612 : en:16. End Credits
-Скриншоты:-- -
Download / Скачать

Хотите скачать бесплатно? Зарегистрируйтесь на сайте (ссылка на регистрацию). Pirat.ca - самый быстрый торрент трекер в рунете!

Как скачивать  ·   Что такое торрент  ·   Рейтинг и ограничения

svat74

Корсар

Пост 28-Мар-2015 19:21 (спустя 3 часа)

[Q] 

качну ребёнку Автору респект!!!
[Профиль]  [ЛС] 

Lena02041984

Юнга

Пост 31-Мар-2015 16:34 (спустя 2 дня 21 час)

[Q] 

хороший мульт
[Профиль]  [ЛС] 

Janasim

Шкипер

Пост 03-Апр-2015 15:38 (спустя 2 дня 23 часа)

[Q] 

Мне понравился мульт. Довольно симпатичный.
[Профиль]  [ЛС] 

Пост 30-Апр-2015 19:59 (спустя 27 дней)

Топик был перенесен из форума Новинки (HD|DVD|BD| TV|SAT|PDTV| - Rips) в форум Зарубежные полнометражные мультфильмы
aleksey99
 

rayven

Морской Волк

Пост 01-Май-2015 01:43 (спустя 27 дней)

[Q] 

Эй, вернитесь на раздачу...
скорости дайте
[Профиль]  [ЛС] 

prjadkin

Флибустьер

Пост 21-Май-2015 11:57 (спустя 20 дней)

[Q] 

классный мульт спасибо за раздачу
[Профиль]  [ЛС] 
Показать сообщения:    
Ответить на тему

Текущее время: Сегодня 06:18

Часовой пояс: GMT + 4



Вы не можете начинать темы
Вы не можете отвечать на сообщения
Вы не можете редактировать свои сообщения
Вы не можете удалять свои сообщения
Вы не можете голосовать в опросах
Вы не можете прикреплять файлы к сообщениям
Вы не можете скачивать файлы

▼ Вниз