ML
     
  Уважаемый Гость!
Вы можете поддержать проект и зарегистрироваться у наших партнеров - онлайн-стратегия MyLands. При регистрации в игре Вы получите код, который сможете активировать после регистрации на pirat.ca и получить 1000 дублонов.

Ваш код:
6f9ab67d502902cc72a06c406977ddb589b7f39d
 
     

Ачи & Сипак: Убойный дуэт / Aachi & Ssipak (Джо Беом Джин/ Jo Beom-jin) [2006 г., мультфильм, фантастика, боевик, криминал., DVDRip] MVO

Ответить на тему
 
Автор
Сообщение

Пост 23-Янв-2012 21:07

[Q] 

alexandr.x79

Корсар

Ачи & Сипак: Убойный дуэт / Aachi & Ssipak
Год выпуска: 2006
Мировая премьера: 29 июня 2006
Российская премьера: 30 октября 2008
Производство: Южная Корея
Жанр: мультфильм, фантастика, боевик, криминал.
Продолжительность: 01:27:47
Перевод: Профессиональный (многоголосый, закадровый) [MVO]
Перевод 2: Отсутствует Перевод 3: Отсутствует Оригинальный аудиопоток: китайский
Субтитры: отсутствуют
Режиссер: Джо Беом Джин/ Jo Beom-jin
В ролях
Ен Хен,Гуй-хва Ли,Гуй-хвонг Ли,Чанг Юнг Лим,Ин-юн Ох,Сенг-бем Рю,Хи-дженг Сео,Хае-чол Шин.
Описание
В мире, где давно стерлись границы между реальностью и самым бредовым вымыслом, огромный мегаполис живет за счет энергии, вырабатываемой из человеческих фекалий — другие энергоресурсы давно исчерпаны. Общественная ценность гражданина здесь прямо пропорциональна способности к регулярной дефекации: чем чаще и обильнее человек испражняется, тем выше его социальный статус.
Всем новорожденным в анус вживляют датчики, которые регистрируют объемы производимых экскрементов. Чтобы стимулировать выработку фекалий на-гора, правительство награждает своих подданных наркотическим препаратом «Juicy Bar» по итогам каждого успешного посещения туалета.
Когда уличные хулиганы Ачи и Сипак встречают начинающую актрису, регулярно получающую огромные порции наркотика — все трое становятся мишенью атак зловещей банды мутантов в подгузниках и правительственного спецназа…
IMDB , КиноПоиск
Источник/Качество: DVDRip
Формат: AVI
Видео кодек: DivX
Аудио кодек: AC3
Видео: 704x384 (1.83:1), 23.976 fps, DivX Codec 6.8.3 ~1841 kbps avg, 0.28 bit/pixel
Аудио: 48 kHz, AC3 Dolby Digital, 2/0 (L,R) ch, ~192 kbps
Аудио #2: 48 kHz, AC3 Dolby Digital, 2/0 (L,R) ch, ~192 kbps
Аудио #3: нет
Формат : AVI
Формат/Информация : Audio Video Interleave
Размер файла : 1,37 Гбайт
Продолжительность : 1 ч. 27 м.
Общий поток : 2241 Кбит/сек
Программа кодирования : VirtualDubMod 1.5.10.2 (build 2540/release)
Библиотека кодирования : VirtualDubMod build 2540/release
Видео
Идентификатор : 0
Формат : MPEG-4 Visual
Параметр BVOP формата : 1
Параметр QPel формата : Нет
Параметр GMC формата : Без точки перехода
Параметр матрицы формата : Default (H.263)
Режим смешивания : Сжатый битовый поток
Идентификатор кодека : DX50
Идентификатор кодека/Подсказка : DivX 5
Продолжительность : 1 ч. 27 м.
Битрейт : 1842 Кбит/сек
Ширина : 704 пикселя
Высота : 384 пикселя
Соотношение сторон : 16:9
Частота кадров : 23,976 кадра/сек
Цветовое пространство : YUV
Субдискретизация насыщенности : 4:2:0
Битовая глубина : 8 бит
Тип развёртки : Прогрессивная
Метод сжатия : С потерями
Бит/(Пиксели*Кадры) : 0.284
Размер потока : 1,13 Гбайт (82%)
Библиотека кодирования : DivX 6.8.3-6.8.4 (UTC 2008-06-07)
Аудио #1
Идентификатор : 1
Формат : AC-3
Формат/Информация : Audio Coding 3
Расширение режима : CM (complete main)
Идентификатор кодека : 2000
Продолжительность : 1 ч. 27 м.
Вид битрейта : Постоянный
Битрейт : 192 Кбит/сек
Каналы : 2 канала
Расположение каналов : Front: L R
Частота : 48,0 КГц
Битовая глубина : 16 бит
Метод сжатия : С потерями
Размер потока : 121 Мбайт (9%)
Выравнивание : Разделение по промежуткам
Продолжительность промежутка : 42 мс. (1,00 видеокадр)
Время предзагрузки промежутка : 500 мс.
Аудио #2
Идентификатор : 2
Формат : AC-3
Формат/Информация : Audio Coding 3
Расширение режима : CM (complete main)
Идентификатор кодека : 2000
Продолжительность : 1 ч. 27 м.
Вид битрейта : Постоянный
Битрейт : 192 Кбит/сек
Каналы : 2 канала
Расположение каналов : Front: L R
Частота : 48,0 КГц
Битовая глубина : 16 бит
Метод сжатия : С потерями
Размер потока : 121 Мбайт (9%)
Выравнивание : Разделение по промежуткам
Продолжительность промежутка : 42 мс. (1,00 видеокадр)
Время предзагрузки промежутка : 500 мс.
Download / Скачать

Хотите скачать бесплатно? Зарегистрируйтесь на сайте (ссылка на регистрацию). Pirat.ca - самый быстрый торрент трекер в рунете!

Как скачивать  ·   Что такое торрент  ·   Рейтинг и ограничения

Пост 23-Янв-2012 21:24 (спустя 16 минут)

Топик был перенесен из форума Мультипликация в форум Зарубежные полнометражные мультфильмы

zyyx
 

alexandr.x79 ®

Корсар

807

Пост 30-Янв-2012 18:25 (спустя 6 дней)

[Q] 

Корейцы рулят,явно режиссеры чем то закидывались.
[Профиль]  [ЛС] 

alexandr.x79 ®

Корсар

807

Пост 30-Янв-2012 18:26 (спустя 1 минута)

[Q] 

мулт,отрыв башки.
[Профиль]  [ЛС] 

alexandr.x79 ®

Корсар

807

Пост 30-Янв-2012 18:29 (спустя 3 минуты)

[Q] 

мульт(простите за безграмотность,русский всегда хромал)
[Профиль]  [ЛС] 

artdog

Штурман

Пост 06-Фев-2012 20:57 (спустя 7 дней)

[Q] 

Ээээ ....... хочу такуюже травку , интересно где они её достали ???
[Профиль]  [ЛС] 
Показать сообщения:    
Ответить на тему

Текущее время: Сегодня 16:31

Часовой пояс: GMT + 4



Вы не можете начинать темы
Вы не можете отвечать на сообщения
Вы не можете редактировать свои сообщения
Вы не можете удалять свои сообщения
Вы не можете голосовать в опросах
Вы не можете прикреплять файлы к сообщениям
Вы не можете скачивать файлы

▼ Вниз