ML
     
  Уважаемый Гость!
Вы можете поддержать проект и зарегистрироваться у наших партнеров - онлайн-стратегия MyLands. При регистрации в игре Вы получите код, который сможете активировать после регистрации на pirat.ca и получить 1000 дублонов.

Ваш код:
11f49771fdf057c9d51610e4a0925c3b46ddb655
 
     

Барби: Супер Принцесса / Barbie in Princess Power (Зик Нортон / Ezekiel Norton) [2015 г., мультфильм, HDRip] Dub (Лицензия)

Ответить на тему
 
Автор
Сообщение

Пост 30-Мар-2015 19:34

[Q] 

LPPI

-Барби: Супер Принцесса / Barbie in Princess Power- Производство: США, Mattel Playground Productions
Год выпуска: 2015 г.
Жанр: мультфильм
Продолжительность: 01:13:46
Мировая премьера: 1 января 2015
Дата выхода DVD: 5 февраля 2015, «Двадцатый Век Фокс СНГ»
Дата выхода Blu-Ray: 5 февраля 2015, «Двадцатый Век Фокс СНГ»-Перевод: Профессиональный (полное дублирование) [Лицензия]-Режиссер: Зик Нортон / Ezekiel Norton
В ролях: Бриттни Ирвин, Майкл Копса, Келли Шеридан-Описание: Барби блистает в роли Кары, современной принцессы, которая живет самой обыкновенной жизнью. Но после поцелуя волшебной бабочки Кара обнаруживает, что обладает магическими силами и может превращаться в Супер Принцессу, которая летает по всему королевству и готова победить любое зло. Однако ее завистливая кузина ловит волшебную бабочку и также трансформируется — но уже в Темную Принцессу! Борьба принцесс накаляется до предела, но, узнав, что у королевства появился настоящий серьезный враг, смогут ли они объединиться в одну команду, забыв о прошлых разногласиях? С высоты птичьего полета отлично видно, что самая могущественная сила — это сила дружбы!- -Качество видео: HDRip
Контейнер: AVI
Видео кодек: XviD
Аудио кодек: AC3
Видео: 720x400 (1.80:1), 29.970 fps, XviD MPEG-4 ~2195 kbps avg, 0.25 bit/pixel
Аудио: Russian: 48 kHz, AC3 Dolby Digital, 3/2 (L,C,R,l,r) + LFE ch, ~448 kbps
Cубтитры: нет-
General
Complete name : D:\Barbie.in.Princess.Power.2015.D.HDRip.1400MB.avi
Format : AVI
Format/Info : Audio Video Interleave
File size : 1.37 GiB
Duration : 1h 13mn
Overall bit rate : 2 655 Kbps
Writing application : VirtualDubMod 1.5.10.2 (build 2540/release)
Writing library : VirtualDubMod build 2540/release
Video
ID : 0
Format : MPEG-4 Visual
Format profile : Advanced [email protected]
Format settings, BVOP : 2
Format settings, QPel : No
Format settings, GMC : No warppoints
Format settings, Matrix : Default (H.263)
Muxing mode : Packed bitstream
Codec ID : XVID
Codec ID/Hint : XviD
Duration : 1h 13mn
Bit rate : 2 195 Kbps
Width : 720 pixels
Height : 400 pixels
Display aspect ratio : 16:9
Frame rate : 29.970 fps
Color space : YUV
Chroma subsampling : 4:2:0
Bit depth : 8 bits
Scan type : Progressive
Compression mode : Lossy
Bits/(Pixel*Frame) : 0.254
Stream size : 1.13 GiB (83%)
Writing library : XviD 64
Audio
ID : 1
Format : AC-3
Format/Info : Audio Coding 3
Mode extension : CM (complete main)
Format settings, Endianness : Big
Codec ID : 2000
Duration : 1h 13mn
Bit rate mode : Constant
Bit rate : 448 Kbps
Channel(s) : 6 channels
Channel positions : Front: L C R, Side: L R, LFE
Sampling rate : 48.0 KHz
Bit depth : 16 bits
Compression mode : Lossy
Stream size : 236 MiB (17%)
Alignment : Split accross interleaves
Interleave, duration : 33 ms (1.00 video frame)
Interleave, preload duratio : 500 ms
-Скриншоты:--
Download / Скачать

Хотите скачать бесплатно? Зарегистрируйтесь на сайте (ссылка на регистрацию). Pirat.ca - самый быстрый торрент трекер в рунете!

Как скачивать  ·   Что такое торрент  ·   Рейтинг и ограничения

Пост 30-Мар-2015 20:18 (спустя 44 минуты)

Топик был перенесен из форума Мультфильмы (Трюм) в форум Новинки (HD|DVD|BD| TV|SAT|PDTV| - Rips)
Андря
 

medved218

Корсар

Пост 30-Мар-2015 21:03 (спустя 1 час 28 минут)

[Q] 

не рекомендую для детской психики
[Профиль]  [ЛС] 

Jek@

Легенда

Пост 31-Мар-2015 15:13 (спустя 18 часов)

[Q] 

Спасибо!!! .
[Профиль]  [ЛС] 

SashaMkaban

Корсар

Пост 31-Мар-2015 17:29 (спустя 2 часа 15 минут)

[Q] 

661797не рекомендую для детской психики
На скринах какая-то психоделика, тут и взрослая психика вряд ли выдержит)
[Профиль]  [ЛС] 

Семен

Морской Волк

Пост 31-Мар-2015 18:26 (спустя 56 минут)

[Q] 

Спасибо!!! Супер!
[Профиль]  [ЛС] 

hevard

Гроза морей

2110

Пост 04-Апр-2015 15:37 (спустя 3 дня)

[Q] 

Первый скрин улыбнул... Южное Бутово, блин. Ей ещё банку "Яги" в руку!

_________________
-Я старый пират и не знаю слов лицензионного соглашения...
[Профиль]  [ЛС] 

anatolyul

Морской Волк

Пост 05-Апр-2015 20:42 (спустя 1 день 5 часов)

[Q] 

очередная "приторная" сказка для девочек.
пока дочь не выросла, буду качать, буду смотреть
Спасибо!!!
[Профиль]  [ЛС] 

Izmailovo

Шкипер

Пост 09-Апр-2015 16:39 (спустя 3 дня)

[Q] 

После таких мультиков глупые принцессы выростают((

_________________
[Профиль]  [ЛС] 

Пост 30-Апр-2015 20:01 (спустя 21 день)

Топик был перенесен из форума Новинки (HD|DVD|BD| TV|SAT|PDTV| - Rips) в форум Зарубежные полнометражные мультфильмы
aleksey99
 
Показать сообщения:    
Ответить на тему

Текущее время: Сегодня 03:12

Часовой пояс: GMT + 4



Вы не можете начинать темы
Вы не можете отвечать на сообщения
Вы не можете редактировать свои сообщения
Вы не можете удалять свои сообщения
Вы не можете голосовать в опросах
Вы не можете прикреплять файлы к сообщениям
Вы не можете скачивать файлы

▼ Вниз