ML
     
  Уважаемый Гость!
Вы можете поддержать проект и зарегистрироваться у наших партнеров - онлайн-стратегия MyLands. При регистрации в игре Вы получите код, который сможете активировать после регистрации на pirat.ca и получить 1000 дублонов.

Ваш код:
fcd618d94adc1456bccbde5047c9cd0930e4ae4d
 
     

Тайна аббатства Келлс / The Secret Of Kells (Томм Мур / Tomm Moore, Нора Твоми / Nora Twomey) [2009 г., мультфильм, фэнтези, приключения, семейный, BDRip-AVC] MVO (R5) + VO (Rider) + Original (Eng) + Sub (Rus, Eng) [internal release]

Ответить на тему
 
Автор
Сообщение

Пост 03-Апр-2015 21:42

[Q] 

LPPI

-Тайна аббатства Келлс / The Secret Of Kells-«Поверните тьму к свету»- Производство: Франция, Бельгия, Ирландия
Год выпуска: 2009 г.
Жанр: мультфильм, фэнтези, приключения, семейный
Продолжительность: 01:18:44
Мировая премьера: 30 января 2009
Российская премьера: 13 января 2011, «RUSCICO»
Дата выхода DVD: 24 марта 2011, «Новый Диск»-Перевод: Профессиональный (многоголосный, закадровый) [R5]
Перевод 2: Любительский (одноголосный, закадровый) [Rider]
Оригинальный аудиопоток: английский-Режиссер: Томм Мур / Tomm Moore, Нора Твоми / Nora Twomey
В ролях: Эван МакГуайр, Кристен Муни, Брендан Глисон, Мик Лэлли, Лиам Хурикан, Пол Тайлак, Майкл МакГрат, Пол Янг, Нора Туми, Алли МакКанн-Описание: На дворе 9 век. В ирландской глубинке спряталось старинное аббатство Келлс, руководит им авторитарный Настоятель. Воспитанный им племянник-сирота по имени Брендан — мальчик славный и способный. Ему 12 лет, и он вместе с другими монахами старательно трудится над укреплением стен аббатства для защиты от набегов викингов.
Новая полная приключений жизнь ждет Брендана с прибытием Брата Эйдана, знаменитого мастера-иллюстратора и хранителя необычной незаконченной книги с иллюстрациями. Брат Эйдан принимает мальчика под свое крыло и посвящает его в искусство иллюстрации, пробуждая невероятный интерес и удивительный талант.- -Качество видео: BDRip-AVC
Контейнер: MKV
Видео кодек: MPEG4 AVC
Аудио кодек: AC3
Видео: 1024x576 (16:9), 23.976 fps, 2 333 Kbps, 0.165 bit/pix
Аудио: Russian: 48 kHz, AC3, 2 ch, ~192.00 kbps avg - MVO
Аудио #2: Russian: 48 kHz, AC3, 3/2 (L,C,R,l,r) + LFE ch, ~448.00 kbps avg - VO
Аудио #3: English: 48 kHz, AC3, 3/2 (L,C,R,l,r) + LFE ch, ~448.00 kbps avg - Original
Cубтитры: Russian, English
Формат субтитров: softsub (SRT)-
x264 [info]: frame I:1268 Avg QP:15.04 size:120007
x264 [info]: frame P:32926 Avg QP:16.76 size: 24188
x264 [info]: frame B:79077 Avg QP:18.01 size: 5321
General
Unique ID : 187376998623393847703769953067187001647 (0x8CF77F4C06BEBF0FB9FE28DAB763592F)
Complete name : F:\Мои рипы\The.Secret.Of.Kells.2009.BDRip-AVC.mkv
Format : Matroska
Format version : Version 4 / Version 2
File size : 1.88 GiB
Duration : 1h 19mn
Overall bit rate : 3 413 Kbps
Movie name : Rip by LPPI
Encoded date : UTC 2015-04-03 16:55:29
Writing application : mkvmerge v7.8.0 ('River Man') 64bit built on Mar 27 2015 16:31:37
Writing library : libebml v1.3.1 + libmatroska v1.4.2
DURATION : 01:11:19.734000000
NUMBER_OF_FRAMES : 923
NUMBER_OF_BYTES : 25887
_STATISTICS_WRITING_APP : mkvmerge v7.8.0 ('River Man') 64bit built on Mar 27 2015 16:31:37
_STATISTICS_WRITING_DATE_UT : 2015-04-03 16:55:29
_STATISTICS_TAGS : BPS DURATION NUMBER_OF_FRAMES NUMBER_OF_BYTES
Video
ID : 1
Format : AVC
Format/Info : Advanced Video Codec
Format profile : [email protected]
Format settings, CABAC : Yes
Format settings, ReFrames : 7 frames
Codec ID : V_MPEG4/ISO/AVC
Duration : 1h 19mn
Bit rate : 2 333 Kbps
Width : 1 024 pixels
Height : 576 pixels
Display aspect ratio : 16:9
Frame rate mode : Constant
Frame rate : 23.976 fps
Color space : YUV
Chroma subsampling : 4:2:0
Bit depth : 8 bits
Scan type : Progressive
Bits/(Pixel*Frame) : 0.165
Stream size : 1.25 GiB (66%)
Title : Тайна аббатства Келлс / The Secret Of Kells
Writing library : x264 core 130 r2273 b3065e6
Encoding settings : cabac=1 / ref=7 / deblock=1:-3:-3 / analyse=0x3:0x133 / me=umh / subme=10 / psy=1 / psy_rd=1.00:0.15 / mixed_ref=0 / me_range=32 / chroma_me=1 / trellis=2 / 8x8dct=1 / cqm=0 / deadzone=21,11 / fast_pskip=0 / chroma_qp_offset=-3 / threads=12 / lookahead_threads=2 / sliced_threads=0 / nr=0 / decimate=0 / interlaced=0 / bluray_compat=0 / constrained_intra=0 / bframes=7 / b_pyramid=2 / b_adapt=2 / b_bias=0 / direct=3 / weightb=1 / open_gop=0 / weightp=2 / keyint=250 / keyint_min=23 / scenecut=40 / intra_refresh=0 / rc=2pass / mbtree=0 / bitrate=2333 / ratetol=1.0 / qcomp=0.60 / qpmin=0 / qpmax=69 / qpstep=4 / cplxblur=20.0 / qblur=0.5 / ip_ratio=1.40 / pb_ratio=1.30 / aq=1:1.00
Language : English
Default : Yes
Forced : Yes
DURATION : 01:18:44.352000000
NUMBER_OF_FRAMES : 113271
NUMBER_OF_BYTES : 1376349071
_STATISTICS_WRITING_APP : mkvmerge v7.8.0 ('River Man') 64bit built on Mar 27 2015 16:31:37
_STATISTICS_WRITING_DATE_UT : 2015-04-03 16:55:29
_STATISTICS_TAGS : BPS DURATION NUMBER_OF_FRAMES NUMBER_OF_BYTES
Audio #1
ID : 2
Format : AC-3
Format/Info : Audio Coding 3
Mode extension : CM (complete main)
Format settings, Endianness : Big
Codec ID : A_AC3
Duration : 1h 19mn
Bit rate mode : Constant
Bit rate : 192 Kbps
Channel(s) : 2 channels
Channel positions : Front: L R
Sampling rate : 48.0 KHz
Bit depth : 16 bits
Compression mode : Lossy
Stream size : 108 MiB (6%)
Title : MVO (R5)
Language : Russian
Default : Yes
Forced : Yes
Audio #2
ID : 3
Format : AC-3
Format/Info : Audio Coding 3
Mode extension : CM (complete main)
Format settings, Endianness : Big
Codec ID : A_AC3
Duration : 1h 19mn
Bit rate mode : Constant
Bit rate : 448 Kbps
Channel(s) : 6 channels
Channel positions : Front: L C R, Side: L R, LFE
Sampling rate : 48.0 KHz
Bit depth : 16 bits
Compression mode : Lossy
Stream size : 253 MiB (13%)
Title : VO (Rider)
Language : Russian
Default : No
Forced : No
Audio #3
ID : 4
Format : AC-3
Format/Info : Audio Coding 3
Mode extension : CM (complete main)
Format settings, Endianness : Big
Codec ID : A_AC3
Duration : 1h 19mn
Bit rate mode : Constant
Bit rate : 448 Kbps
Channel(s) : 6 channels
Channel positions : Front: L C R, Side: L R, LFE
Sampling rate : 48.0 KHz
Bit depth : 16 bits
Compression mode : Lossy
Stream size : 253 MiB (13%)
Title : Original
Language : English
Default : No
Forced : No
Text #1
ID : 5
Format : UTF-8
Codec ID : S_TEXT/UTF8
Codec ID/Info : UTF-8 Plain Text
Language : Russian
Default : No
Forced : No
Text #2
ID : 6
Format : UTF-8
Codec ID : S_TEXT/UTF8
Codec ID/Info : UTF-8 Plain Text
Language : English
Default : No
Forced : No
Text #3
ID : 7
Format : UTF-8
Codec ID : S_TEXT/UTF8
Codec ID/Info : UTF-8 Plain Text
Title : SDH
Language : English
Default : No
Forced : No
Menu
00:00:00.000 : en:I Have Seen…
00:02:13.300 : en:Beyon the Walls
00:10:57.407 : en:The Cat, the Illuminator… and the Page
00:19:49.897 : en:Aisling's Forest
00:31:47.656 : en:Forbidden Fruits
00:35:53.693 : en:Visions of Horror
00:43:01.287 : en:Cellach's Punishment
00:49:01.522 : en:Light and Darkness
00:54:30.225 : en:A Forbidden Masterpiece
00:58:43.770 : en:Barbarian Invasion
01:06:47.003 : en:A Light of Hope
01:13:25.568 : en:Credits
-Скриншоты:-- -
Download / Скачать

Хотите скачать бесплатно? Зарегистрируйтесь на сайте (ссылка на регистрацию). Pirat.ca - самый быстрый торрент трекер в рунете!

Как скачивать  ·   Что такое торрент  ·   Рейтинг и ограничения



Последний раз редактировалось: LPPI (2015-04-04 15:40), всего редактировалось 1 раз

Пост 04-Апр-2015 15:30 (спустя 17 часов)

Топик был перенесен из форума Мультфильмы (Трюм) в форум Зарубежные полнометражные мультфильмы
erchine
 

LPPI ®

137546

Пост 12-Апр-2015 16:46 (спустя 8 дней)

[Q] 

Классный мультфильм. Всем качать!!! Супер!
[Профиль]  [ЛС] 
Показать сообщения:    
Ответить на тему

Текущее время: Сегодня 12:53

Часовой пояс: GMT + 4



Вы не можете начинать темы
Вы не можете отвечать на сообщения
Вы не можете редактировать свои сообщения
Вы не можете удалять свои сообщения
Вы не можете голосовать в опросах
Вы не можете прикреплять файлы к сообщениям
Вы не можете скачивать файлы

▼ Вниз