ML
     
  Уважаемый Гость!
Вы можете поддержать проект и зарегистрироваться у наших партнеров - онлайн-стратегия MyLands. При регистрации в игре Вы получите код, который сможете активировать после регистрации на pirat.ca и получить 1000 дублонов.

Ваш код:
f612af22ea70acf5cbe90707ac5a076d215f8f7f
 
     

Бэтмен против Робина / Batman vs. Robin (Джей Олива / Jay Oliva) [2015 г., мультфильм, боевик, приключения, WEB-DLRip] VO [Павел Морозов]

Ответить на тему
 
Автор
Сообщение

Пост 12-Апр-2015 21:14

[Q] 

aleksey99

--Бэтмен против Робина / Batman vs. Robin-- Производство: США, DC Comics, DC Entertainment
Год выпуска: 2015 г.
Жанр: мультфильм, боевик, приключения
Продолжительность: 01:20:00--Мировая премьера: 14 апреля 2015--Перевод: Любительский (одноголосый, закадровый)[Павел Морозов]--Режиссер: Джей Олива / Jay Oliva--В ролях: Дэвид МакКаллум, Джереми Систо, Джейсон О’Мара, Грэй Гриффин, Кевин Конрой, Шон Маэр, Робин Аткин Даунс, «Странный Эл» Янкович, Питер Онорати, Камар де лос Рейес--Описание: Новый мультфильм в стиле комиксов снова вышел на экраны. На сей раз, мы увидим ту же историю Бэтмена и его родного города. В Готэме всегда было много беззакония и бандитов, но теперь отважному спасителю помогает небольшой, но смелый Робин. Сюжет фильма будет вращаться вокруг секретного сообщества, возникшего на рассвете Готэма, которое похищало детей и воспитывало из них ассасинов...-- --Качество видео: WEB-DLRip
Контейнер: AVI
Видео кодек: XviD
Аудио кодек: AC3
Видео: 720x400 (1.80:1), 23.976 fps, XviD MPEG-4 ~1895 kbps avg, 0.27 bit/pixel
Аудио: 48 kHz, AC3 Dolby Digital, 3/2 (L,C,R,l,r) + LFE ch, ~448 kbps
Cубтитры: Отсутствуют
Общее
Полное имя : E:\T2\Batman.vs.Robin.avi
Формат : AVI
Формат/Информация : Audio Video Interleave
Размер файла : 1,31 Гбайт
Продолжительность : 1 ч. 20 м.
Общий поток : 2353 Кбит/сек
Программа кодирования : VirtualDubMod 1.5.10.2 (build 2540/release)
Библиотека кодирования : VirtualDubMod build 2540/release
Видео
Идентификатор : 0
Формат : MPEG-4 Visual
Профиль формата : Advanced [email protected]
Параметр BVOP формата : 2
Параметр QPel формата : Нет
Параметр GMC формата : Без точки перехода
Параметр матрицы формата : Default (H.263)
Режим смешивания : Сжатый битовый поток
Идентификатор кодека : XVID
Идентификатор кодека/Подсказка : XviD
Продолжительность : 1 ч. 20 м.
Битрейт : 1896 Кбит/сек
Ширина : 720 пикселей
Высота : 400 пикселей
Соотношение сторон : 16:9
Частота кадров : 23,976 кадра/сек
Цветовое пространство : YUV
Субдискретизация насыщенности : 4:2:0
Битовая глубина : 8 бит
Тип развёртки : Прогрессивная
Метод сжатия : С потерями
Бит/(Пиксели*Кадры) : 0.275
Размер потока : 1,06 Гбайт (81%)
Библиотека кодирования : XviD 66
Аудио
Идентификатор : 1
Формат : AC-3
Формат/Информация : Audio Coding 3
Расширение режима : CM (complete main)
Параметр Endianness формата : Big
Идентификатор кодека : 2000
Продолжительность : 1 ч. 20 м.
Вид битрейта : Постоянный
Битрейт : 448 Кбит/сек
Каналы : 6 каналов
Расположение каналов : Front: L C R, Side: L R, LFE
Частота : 48,0 КГц
Битовая глубина : 16 бит
Метод сжатия : С потерями
Размер потока : 256 Мбайт (19%)
Выравнивание : Разделение по промежуткам
Продолжительность промежутка : 42 мс. (1,00 видеокадр)
Время предзагрузки промежутка : 500 мс.
Download / Скачать

Хотите скачать бесплатно? Зарегистрируйтесь на сайте (ссылка на регистрацию). Pirat.ca - самый быстрый торрент трекер в рунете!

Как скачивать  ·   Что такое торрент  ·   Рейтинг и ограничения

LPPI

137548

Пост 12-Апр-2015 21:26 (спустя 12 минут)

[Q] 

Надо будет глянуть Спасибо!!! Всем качать!!!
[Профиль]  [ЛС] 

EDVAR

Легенда

Пост 12-Апр-2015 21:59 (спустя 33 минуты)

[Q] 

Благодарю!Посмотрим.

_________________
"Как других судить-вы судьи.Как себя-вы адвокаты"
[Профиль]  [ЛС] 

pdb08

Легенда

Пост 12-Апр-2015 22:47 (спустя 47 минут)

[Q] 

Спасибо! Раздающему респект!

_________________
[Профиль]  [ЛС] 

vasia1381728

Морской Волк

3

Пост 13-Апр-2015 01:10 (спустя 2 часа 23 минуты)

[Q] 

Спасибо!!!
[Профиль]  [ЛС] 

shpak evgeniy

Шкипер

Пост 13-Апр-2015 08:29 (спустя 7 часов)

[Q] 

Спасибо ! !COOL!
[Профиль]  [ЛС] 

markuswolf

Шкипер

Пост 17-Апр-2015 10:27 (спустя 4 дня)

[Q] 

Жаль, что не 3D. Но качну. Спасибо!!! Пиратка рулез!!!

_________________
Грустной жопой - радостно не пукнешь...
[Профиль]  [ЛС] 

ivv

Шкипер

Пост 17-Апр-2015 17:55 (спустя 7 часов)

[Q] 

Мультфильмы во вселенной DC определенно заслуживают внимания! Обязательно посмотрю, уже качаю)
[Профиль]  [ЛС] 

sergein

Корсар

Пост 17-Апр-2015 21:20 (спустя 3 часа)

[Q] 

ну поглядят детки на выходных ну и я с ними погляжу чего там набэтменили
[Профиль]  [ЛС] 

Пост 12-Май-2015 21:42 (спустя 25 дней)

Топик был перенесен из форума Новинки (HD|DVD|BD| TV|SAT|PDTV| - Rips) в форум Зарубежные полнометражные мультфильмы
aleksey99
 
Показать сообщения:    
Ответить на тему

Текущее время: Сегодня 00:23

Часовой пояс: GMT + 4



Вы не можете начинать темы
Вы не можете отвечать на сообщения
Вы не можете редактировать свои сообщения
Вы не можете удалять свои сообщения
Вы не можете голосовать в опросах
Вы не можете прикреплять файлы к сообщениям
Вы не можете скачивать файлы

▼ Вниз