ML
     
  Уважаемый Гость!
Вы можете поддержать проект и зарегистрироваться у наших партнеров - онлайн-стратегия MyLands. При регистрации в игре Вы получите код, который сможете активировать после регистрации на pirat.ca и получить 1000 дублонов.

Ваш код:
db0e0ad91548759ffeb9bb88bed405e1a4b3c165
 
     

Бунт ушастых / Hop (Тим Хилл / Tim Hill) [2011 г., мультфильм, фэнтези, комедия, приключения, семейный, BDRip] Dub

Ответить на тему
 
Автор
Сообщение

Пост 12-Апр-2015 21:37

[Q] 

LPPI

-Бунт ушастых / Hop- Производство: США
Год выпуска: 2011 г.
Жанр: мультфильм, фэнтези, комедия, приключения, семейный
Продолжительность: 01:35:00
Мировая премьера: 30 марта 2011
Российская премьера: 9 июня 2011, «UPI»
Дата выхода DVD: 13 октября 2011, «Двадцатый Век Фокс СНГ»
Дата выхода Blu-Ray: 13 октября 2011, «Двадцатый Век Фокс СНГ»-Перевод: Профессиональный (полное дублирование)-Режиссер: Тим Хилл / Tim Hill
В ролях: Джеймс Марсден (Fred O'Hare), Расселл Брэнд (E.B. / Production Assistant, озвучка), Кейли Куоко (Sam O'Hare), Хэнк Азария (Carlos / Phil, озвучка), Гэри Коул (Henry O'Hare), Элизабет Перкинс (Bonnie O'Hare), Хью Лори (E.B.'s Dad, озвучка), Тиффани Эспенсен (Alex O'Hare), Дэвид Хэсселхофф (играет самого себя), Челси Хэндлер (Mrs. Beck), Дастин Ибарра (Cody), Карлис Бурк (Receptionist)-Описание: Анимационная комедия про кролика Хэппи, который не хотел продолжать семейное дело и разносить детям подарки перед Пасхой, а хотел стать барабанщиком и играть рок-н-ролл.
А в это время злобный цыпленок строит планы по захвату власти на острове Пасхи.- -Качество видео: BDRip
Контейнер: AVI
Видео кодек: XviD
Аудио кодек: AC3
Видео: 704x384 (1.83:1), 23.976 fps, XviD build 63 ~1803 kbps avg, 0.28 bit/pixel
Аудио: Russian: 48 kHz, AC3 Dolby Digital, 3/2 (L,C,R,l,r) + LFE ch, ~384 kbps
Cубтитры: нет-
General
Complete name : F:\Фильмы\Bunt.ushastyh.2011.BDRip.avi
Format : AVI
Format/Info : Audio Video Interleave
File size : 1.46 GiB
Duration : 1h 35mn
Overall bit rate : 2 197 Kbps
Writing application : VirtualDubMod 1.5.10.2 (build 2542/release)
Video
ID : 0
Format : MPEG-4 Visual
Format profile : Advanced [email protected]
Format settings, BVOP : 1
Format settings, QPel : No
Format settings, GMC : No warppoints
Format settings, Matrix : Custom
Codec ID : XVID
Codec ID/Hint : XviD
Duration : 1h 35mn
Bit rate : 1 804 Kbps
Width : 704 pixels
Height : 384 pixels
Display aspect ratio : 1.85:1
Frame rate : 23.976 fps
Color space : YUV
Chroma subsampling : 4:2:0
Bit depth : 8 bits
Scan type : Progressive
Compression mode : Lossy
Bits/(Pixel*Frame) : 0.278
Stream size : 1.20 GiB (82%)
Writing library : XviD 63
Audio
ID : 1
Format : AC-3
Format/Info : Audio Coding 3
Mode extension : CM (complete main)
Format settings, Endianness : Big
Codec ID : 2000
Duration : 1h 35mn
Bit rate mode : Constant
Bit rate : 384 Kbps
Channel(s) : 6 channels
Channel positions : Front: L C R, Side: L R, LFE
Sampling rate : 48.0 KHz
Bit depth : 16 bits
Compression mode : Lossy
Stream size : 261 MiB (17%)
Alignment : Split accross interleaves
Interleave, duration : 42 ms (1.00 video frame)
Interleave, preload duratio : 500 ms
-Скриншоты:-- -
Download / Скачать

Хотите скачать бесплатно? Зарегистрируйтесь на сайте (ссылка на регистрацию). Pirat.ca - самый быстрый торрент трекер в рунете!

Как скачивать  ·   Что такое торрент  ·   Рейтинг и ограничения

Пост 12-Апр-2015 21:56 (спустя 18 минут)

Топик был перенесен из форума Мультфильмы (Трюм) в форум Зарубежные полнометражные мультфильмы
Андря
 
Показать сообщения:    
Ответить на тему

Текущее время: Сегодня 08:07

Часовой пояс: GMT + 4



Вы не можете начинать темы
Вы не можете отвечать на сообщения
Вы не можете редактировать свои сообщения
Вы не можете удалять свои сообщения
Вы не можете голосовать в опросах
Вы не можете прикреплять файлы к сообщениям
Вы не можете скачивать файлы

▼ Вниз