ML
     
  Уважаемый Гость!
Вы можете поддержать проект и зарегистрироваться у наших партнеров - онлайн-стратегия MyLands. При регистрации в игре Вы получите код, который сможете активировать после регистрации на pirat.ca и получить 1000 дублонов.

Ваш код:
c3360d664ceb84802c84b88ed062a5d134e2ba97
 
     

Гнездо дракона / Dragon Nest: Warriors' Dawn (Юэфэн Сун / Yuefeng Song) [2014 г., мультфильм, фэнтези, приключения, семейный, WEBRip] Dub (Звук с TS) + Sub (Chi)

Ответить на тему
 
Автор
Сообщение

Пост 13-Апр-2015 05:30

[Q] 

aleksey99

--Гнездо дракона / Dragon Nest: Warriors' Dawn-- -Производство: США, Китай, Франция / Mili Pictures
Год выпуска: 2014 г.
Жанр: мультфильм, фэнтези, приключения, семейный
Продолжительность: 01:30:01--Мировая премьера: 14 мая 2014
Российская премьера: 9 апреля 2015, «Парадиз», «АКМ»--Перевод: Профессиональный (полное дублирование) [Звук с TS]--Режиссер: Юэфэн Сун / Yuefeng Song--В ролях: Блайт Оффарт, Бьянка Коллинз, Саймон Джэглом--Описание: Кто бы мог подумать, что всегда неуклюжий, но несомненно талантливый парень станет великим героем, который спасет свою красивейшую планету от пробудившегося зла? Много лет, пока легендарный Черный дракон спал, земля Алтера хранила хрупкий мир между расами людей, эльфов и неведомых нашему миру животных. Когда же он пробудился, охваченные ужасом жители были вынуждены бежать сквозь остров в попытке найти спасение… Наш герой Ламберт в компании своих пушистых компаньонов отправляется в путь полный веселых развлечений и приключений, встречая настоящих друзей и любовь в лице прекрасной эльфийской девочки. Объединившись, они находят тайную дорогу к пещере дракона, а юный воин выполняет возложенную на него важнейшую миссию: он входит в доверие к Черному Дракону, чтобы с честью и юмором выйти победителем.-- --Качество видео: WEBRip
Контейнер: AVI
Видео кодек: XviD
Аудио кодек: AC3
Видео: 720x400 (1.80:1), 24 fps, XviD MPEG-4 ~1911 kbps avg, 0.28 bit/pixel
Аудио: 48 kHz, AC3 Dolby Digital, 2/0 (L,R) ch, ~256 kbps
Cубтитры: Присутствуют вшитые неотключаемые китайские субтитры.
Общее
Полное имя : E:\T2\Gnezdo.Drakona.2014.Dt.WEBRip.avi
Формат : AVI
Формат/Информация : Audio Video Interleave
Размер файла : 1,37 Гбайт
Продолжительность : 1 ч. 30 м.
Общий поток : 2177 Кбит/сек
Программа кодирования : VirtualDubMod 1.5.10.3 | www.virtualdub-fr.org || (build 2550/release)
Видео
Идентификатор : 0
Формат : MPEG-4 Visual
Профиль формата : Advanced [email protected]
Параметр BVOP формата : 2
Параметр QPel формата : Нет
Параметр GMC формата : Без точки перехода
Параметр матрицы формата : Default (MPEG)
Режим смешивания : Сжатый битовый поток
Идентификатор кодека : XVID
Идентификатор кодека/Подсказка : XviD
Продолжительность : 1 ч. 30 м.
Битрейт : 1912 Кбит/сек
Ширина : 720 пикселей
Высота : 400 пикселей
Соотношение сторон : 16:9
Частота кадров : 24,000 кадра/сек
Цветовое пространство : YUV
Субдискретизация насыщенности : 4:2:0
Битовая глубина : 8 бит
Тип развёртки : Прогрессивная
Метод сжатия : С потерями
Бит/(Пиксели*Кадры) : 0.277
Размер потока : 1,20 Гбайт (88%)
Библиотека кодирования : XviD 73
Аудио
Идентификатор : 1
Формат : AC-3
Формат/Информация : Audio Coding 3
Расширение режима : CM (complete main)
Параметр Endianness формата : Big
Идентификатор кодека : 2000
Продолжительность : 1 ч. 30 м.
Вид битрейта : Постоянный
Битрейт : 256 Кбит/сек
Каналы : 2 канала
Расположение каналов : Front: L R
Частота : 48,0 КГц
Битовая глубина : 16 бит
Метод сжатия : С потерями
Размер потока : 165 Мбайт (12%)
Выравнивание : Разделение по промежуткам
Продолжительность промежутка : 42 мс. (1,00 видеокадр)
Время предзагрузки промежутка : 500 мс.
Трейлер
Download / Скачать

Хотите скачать бесплатно? Зарегистрируйтесь на сайте (ссылка на регистрацию). Pirat.ca - самый быстрый торрент трекер в рунете!

Как скачивать  ·   Что такое торрент  ·   Рейтинг и ограничения

alexey3312

Флибустьер

398

Пост 13-Апр-2015 12:33 (спустя 7 часов)

[Q] 

Интересно, думаю мелкому понравится. Вот бы ещё звук нормальный... Спасибо!

_________________
Металлисты - это самый развитой и передовой класс, и никто не может отрицать, что это и есть передовой отряд всего пролетариата. В.И. Ленин
[Профиль]  [ЛС] 

Шелли

Пост 13-Апр-2015 15:13 (спустя 2 часа 40 минут)

[Q] 

Очень обнадеживает,но качество немного настораживает..

_________________

Валерьянка прекрасно успокаивает.Всего пять капель на бутылку вискаря- и нервы как канаты)
[Профиль]  [ЛС] 

polozm

Легенда

Пост 13-Апр-2015 15:58 (спустя 44 минуты)

[Q] 

спасибо,скачаю дочке

_________________
mac mini -2.0 GHz Intel Core i7/ 8 GB DDR3. /Intel HD 3000(512mb)OS X 10.9 Mavericks
[Профиль]  [ЛС] 

julikam

Гроза морей

Пост 13-Апр-2015 17:43 (спустя 1 час 45 минут)

[Q] 

Спасибо!
Пиратка рулит!

_________________

Не может быть отремонтировано только то, что не сломано.
[Профиль]  [ЛС] 

gnezd77

Флибустьер

Пост 13-Апр-2015 23:03 (спустя 5 часов)

[Q] 

Спасибо!!! забираю... Пиратка рулит!
[Профиль]  [ЛС] 

Rumpler

Шкипер

Пост 14-Апр-2015 12:05 (спустя 13 часов)

[Q] 

фильм нормальный, на один раз)
[Профиль]  [ЛС] 

superprogresor

Штурман

Пост 14-Апр-2015 21:03 (спустя 8 часов)

[Q] 

Графика на уровне, смотрел фильм, уснул на середине, видел начало и конец, этого и хватило. Фильм затянут, персонажей и сюжета хватило бы на знатный сериал, при этом сюжет вполне предсказуем и линеен.
[Профиль]  [ЛС] 

bolin

Флибустьер

Пост 14-Апр-2015 21:24 (спустя 20 минут)

[Q] 

Качну мальчикам! Спасибо за раздачу!
[Профиль]  [ЛС] 

one-chester

Штурман

Пост 24-Апр-2015 09:02 (спустя 9 дней)

[Q] 

Мульт больше напоминает видео из какой-нибудь mmorpg
[Профиль]  [ЛС] 

Пост 16-Май-2015 10:06 (спустя 22 дня)

Топик был перенесен из форума Новинки (HD|DVD|BD| TV|SAT|PDTV| - Rips) в форум Зарубежные полнометражные мультфильмы
aleksey99
 

malefik

Корсар

Пост 30-Май-2015 16:49 (спустя 1 месяц 6 дней)

[Q] 

ширпотреб китайский
[Профиль]  [ЛС] 
Показать сообщения:    
Ответить на тему

Текущее время: Сегодня 10:07

Часовой пояс: GMT + 4



Вы не можете начинать темы
Вы не можете отвечать на сообщения
Вы не можете редактировать свои сообщения
Вы не можете удалять свои сообщения
Вы не можете голосовать в опросах
Вы не можете прикреплять файлы к сообщениям
Вы не можете скачивать файлы

▼ Вниз