ML
     
  Уважаемый Гость!
Вы можете поддержать проект и зарегистрироваться у наших партнеров - онлайн-стратегия MyLands. При регистрации в игре Вы получите код, который сможете активировать после регистрации на pirat.ca и получить 1000 дублонов.

Ваш код:
cc3be08b7507661c03e0a2f582d0da3a659ea55a
 
     

Оз: Нашествие летучих обезьян / Guardianes de Oz (Альберто Мар / Alberto Mar) [2015 г., мультфильм, фэнтези, приключения, HDRip] Dub (Чистый звук)

Ответить на тему
 
Автор
Сообщение

Пост 25-Апр-2015 06:37

[Q] 

aleksey99

--Оз: Нашествие летучих обезьян / Guardianes de Oz-- Производство: Индия, Мексика / Anima Estudios, Discreet Arts Productions
Год выпуска: 2015 г.
Жанр: мультфильм, фэнтези, приключения
Продолжительность: 01:27:22--Мировая премьера: 26 марта 2015
Российская премьера: 2 апреля 2015, «Top Film Distribution»--Перевод: Профессиональный (полное дублирование) [Чистый звук]--Режиссер: Альберто Мар / Alberto Mar--В ролях: Рауль Араиса, Раймундо Армихо, Ямил Атала, Бруно Коронел, Магда Хинер, Себастьян Льяпур, Мойсес Иван Мора, Лорето Пералта, Salvador Reyes, Хорхе Ван Ранкин--Описание: Вы помните, как все начиналось? Давным-давно в страну Оз прилетела юная героиня, ее звали Дороти, она смогла победить Коварную Ведьму Запада и добрая волшебница Глинда помогла ей вернуться домой. А друзья Дороти — Страшила, Железный Дровосек и Смелый Лев — стали правителями страны Оз. И все в волшебной стране было хорошо, пока Глинда по своей доброте не решила дать Коварной Ведьме Запада еще один шанс.
Чары Злодейки поместили в метлу, а метлу передали Правителям. Но злая ведьма — есть злая ведьма, даже без своих чар… Знакомая с детства история, продолжение которой рассказывает маленькая летающая обезьянка, которая на самом деле не умеет летать и не хочет служить Коварной Ведьме Запада.-- --Качество видео: HDRip
Контейнер: AVI
Видео кодек: XviD
Аудио кодек: AC3
Видео: 720x384 (1.88:1), 24 fps, XviD MPEG-4 ~1979 kbps avg, 0.30 bit/pixel
Аудио: 48 kHz, AC3 Dolby Digital, 2/0 (L,R) ch, ~256 kbps
Cубтитры: отсутствуют
Общее
Полное имя : E:\T2\OZ.nashestvie.letuchih.obezyan.2015.D.HDRip.1400MB.avi
Формат : AVI
Формат/Информация : Audio Video Interleave
Размер файла : 1,37 Гбайт
Продолжительность : 1 ч. 27 м.
Общий поток : 2245 Кбит/сек
Программа кодирования : VirtualDubMod 1.5.10.3 | www.virtualdub-fr.org || (build 2550/release)
Библиотека кодирования : VirtualDubMod build 2550/release
Видео
Идентификатор : 0
Формат : MPEG-4 Visual
Профиль формата : Advanced [email protected]
Параметр BVOP формата : 2
Параметр QPel формата : Нет
Параметр GMC формата : Без точки перехода
Параметр матрицы формата : Default (MPEG)
Режим смешивания : Сжатый битовый поток
Идентификатор кодека : XVID
Идентификатор кодека/Подсказка : XviD
Продолжительность : 1 ч. 27 м.
Битрейт : 1980 Кбит/сек
Ширина : 720 пикселей
Высота : 384 пикселя
Соотношение сторон : 1,85:1
Частота кадров : 24,000 кадра/сек
Цветовое пространство : YUV
Субдискретизация насыщенности : 4:2:0
Битовая глубина : 8 бит
Тип развёртки : Прогрессивная
Метод сжатия : С потерями
Бит/(Пиксели*Кадры) : 0.298
Размер потока : 1,21 Гбайт (88%)
Библиотека кодирования : XviD 73
Аудио
Идентификатор : 1
Формат : AC-3
Формат/Информация : Audio Coding 3
Расширение режима : CM (complete main)
Параметр Endianness формата : Big
Идентификатор кодека : 2000
Продолжительность : 1 ч. 27 м.
Вид битрейта : Постоянный
Битрейт : 256 Кбит/сек
Каналы : 2 канала
Расположение каналов : Front: L R
Частота : 48,0 КГц
Битовая глубина : 16 бит
Метод сжатия : С потерями
Задержка видео : 28 мс.
Размер потока : 160 Мбайт (11%)
Выравнивание : Разделение по промежуткам
Продолжительность промежутка : 42 мс. (1,00 видеокадр)
Время предзагрузки промежутка : 500 мс.
Трейлер
Download / Скачать

Хотите скачать бесплатно? Зарегистрируйтесь на сайте (ссылка на регистрацию). Pirat.ca - самый быстрый торрент трекер в рунете!

Как скачивать  ·   Что такое торрент  ·   Рейтинг и ограничения

salavat1234

Гроза морей

Пост 25-Апр-2015 10:29 (спустя 3 часа)

[Q] 

Автору респект!!! Лови бочку
[Профиль]  [ЛС] 

Kotello

Шкипер

Пост 25-Апр-2015 11:37 (спустя 1 час 8 минут)

[Q] 

Заценимс!!!За раздачу спасибо Автору респект!!!
[Профиль]  [ЛС] 

alex198408

Морской Волк

Пост 25-Апр-2015 12:13 (спустя 35 минут)

[Q] 

хороший мульт Спасибо!!!
[Профиль]  [ЛС] 

shalonina

Гроза морей

Пост 25-Апр-2015 14:37 (спустя 2 часа 23 минуты)

[Q] 

Автору респект!!!

_________________
[Профиль]  [ЛС] 

Дрей

Штурман

Пост 25-Апр-2015 16:55 (спустя 2 часа 17 минут)

[Q] 

Спасибо за раздачу Спасибо!!!
[Профиль]  [ЛС] 

MikeB

Гроза морей

Пост 25-Апр-2015 17:36 (спустя 41 минута)

[Q] 

Спасибо!!! На любителя
[Профиль]  [ЛС] 

C0y0te

1423

Пост 26-Апр-2015 12:01 (спустя 18 часов)

[Q] 

Автору респект!!! Лови бочку
[Профиль]  [ЛС] 

DellFlyer

Флибустьер

165

Пост 27-Апр-2015 02:37 (спустя 14 часов)

[Q] 

Хороший мульт! В онлайне в нормальном качестве можно тут посмотреть - http://flyer-dell-studio.ru/multfilms/1826-oz-nashe...hih-obezyan.html
Там много всего можно посмотреть...
За релиз спс и бочку!
[Профиль]  [ЛС] 

Jek@

Легенда

Пост 27-Апр-2015 18:18 (спустя 15 часов)

[Q] 

Спасибо!!! .
[Профиль]  [ЛС] 

bolin

Флибустьер

Пост 27-Апр-2015 18:48 (спустя 29 минут)

[Q] 

Автор!!! Кто здеся?
Добавлено спустя 1 минута 31 секунда:
Спасибо Лови бочку
[Профиль]  [ЛС] 

Showman

Корсар

Пост 28-Апр-2015 05:17 (спустя 10 часов)

[Q] 

Понравился! Супер! Лови бочку
[Профиль]  [ЛС] 

Anti1000

Шкипер

Пост 01-Май-2015 00:01 (спустя 2 дня 18 часов)

[Q] 

Надеюсь не танцуют? ep eu
[Профиль]  [ЛС] 

anatolyul

Морской Волк

Пост 14-Май-2015 18:28 (спустя 13 дней)

[Q] 

ребенку понравился
Спасибо!!!
[Профиль]  [ЛС] 

Пост 25-Май-2015 08:46 (спустя 10 дней)

Топик был перенесен из форума Новинки (HD|DVD|BD| TV|SAT|PDTV| - Rips) в форум Зарубежные полнометражные мультфильмы
aleksey99
 
Показать сообщения:    
Ответить на тему

Текущее время: Сегодня 05:08

Часовой пояс: GMT + 4



Вы не можете начинать темы
Вы не можете отвечать на сообщения
Вы не можете редактировать свои сообщения
Вы не можете удалять свои сообщения
Вы не можете голосовать в опросах
Вы не можете прикреплять файлы к сообщениям
Вы не можете скачивать файлы

▼ Вниз