ML
     
  Уважаемый Гость!
Вы можете поддержать проект и зарегистрироваться у наших партнеров - онлайн-стратегия MyLands. При регистрации в игре Вы получите код, который сможете активировать после регистрации на pirat.ca и получить 1000 дублонов.

Ваш код:
db0e0ad91548759ffeb9bb88bed405e1a4b3c165
 
     

Барашек Шон / Shaun the Sheep Movie (Марк Бертон / Mark Burton)[2015 г., мультфильм, комедия, приключения, семейный, WEB-DLRip]

Ответить на тему
 
Автор
Сообщение

Пост 30-Апр-2015 10:55

[Q] 

aleksey99

--Барашек Шон / Shaun the Sheep Movie--«Бе-е-е-ежим в кино!»-- Производство: Великобритания, Франция, Aardman Animations, Anton Capital Entertainment (ACE), StudioCanal
Год выпуска: 2015 г.
Жанр: мультфильм, комедия, приключения, семейный
Продолжительность: 01:21:33--Мировая премьера: 24 января 2015
Российская премьера: 26 марта 2015, «Вольга»--Перевод: Не требуется--Режиссер: Марк Бертон / Mark Burton--В ролях: Джастин Флетчер, Джон Шпаркс, Омид Джалили, Ричард Веббер, Кейт Харбор, Тим Хэндс, Энди Найман, Саймон Гринхолл, Эмма Тейт, Джек Полсон--Описание: Мирная жизнь маленькой овцефермы оказывается под угрозой, когда в результате очередной проказы неутомимого Барашка Шона хозяин фермы попадает в большой город. Вдоволь навеселившись полной свободой и безнаказанностью, Шон и остальное стадо барашков начинают волноваться за Фермера и решают отправиться на его спасение. Замаскировавшись под людей, они едут в большой город, где их ждет самое весёлое и эпическое приключение всей жизни.-- --Качество видео: WEB-DLRip
Контейнер: AVI
Видео кодек: XviD
Аудио кодек: AC3
Видео: 720x384 (1.88:1), 25 fps, XviD build 50 ~2005 kbps avg, 0.29 bit/pixel
Аудио: 48 kHz, AC3 Dolby Digital, 3/2 (L,C,R,l,r) + LFE ch, ~384 kbps
Cубтитры: отсутствуют
Общее
Полное имя : D:\baPashek.sh0H.2015.D.WEB-DLRip.1400Mb.avi
Формат : AVI
Формат/Информация : Audio Video Interleave
Размер файла : 1,37 Гбайт
Продолжительность : 1 ч. 21 м.
Общий поток : 2400 Кбит/сек
Программа кодирования : VirtualDubMod 1.5.10.3 | www.virtualdub-fr.org || (build 2550/release)
Библиотека кодирования : VirtualDubMod build 2550/release
Видео
Идентификатор : 0
Формат : MPEG-4 Visual
Профиль формата : Advanced [email protected]
Параметр BVOP формата : 2
Параметр QPel формата : Нет
Параметр GMC формата : Без точки перехода
Параметр матрицы формата : Default (MPEG)
Идентификатор кодека : XVID
Идентификатор кодека/Подсказка : XviD
Продолжительность : 1 ч. 21 м.
Битрейт : 2006 Кбит/сек
Ширина : 720 пикселей
Высота : 384 пикселя
Соотношение сторон : 1,85:1
Частота кадров : 25,000 кадров/сек
Цветовое пространство : YUV
Субдискретизация насыщенности : 4:2:0
Битовая глубина : 8 бит
Тип развёртки : Прогрессивная
Метод сжатия : С потерями
Бит/(Пиксели*Кадры) : 0.290
Размер потока : 1,14 Гбайт (84%)
Библиотека кодирования : XviD 1.2.1 (UTC 2008-12-04)
Аудио
Идентификатор : 1
Формат : AC-3
Формат/Информация : Audio Coding 3
Расширение режима : CM (complete main)
Параметр Endianness формата : Big
Идентификатор кодека : 2000
Продолжительность : 1 ч. 21 м.
Вид битрейта : Постоянный
Битрейт : 384 Кбит/сек
Каналы : 6 каналов
Расположение каналов : Front: L C R, Side: L R, LFE
Частота : 48,0 КГц
Битовая глубина : 16 бит
Метод сжатия : С потерями
Размер потока : 224 Мбайт (16%)
Выравнивание : Разделение по промежуткам
Продолжительность промежутка : 40 мс. (1,00 видеокадр)
Время предзагрузки промежутка : 500 мс.
Трейлер
Download / Скачать

Хотите скачать бесплатно? Зарегистрируйтесь на сайте (ссылка на регистрацию). Pirat.ca - самый быстрый торрент трекер в рунете!

Как скачивать  ·   Что такое торрент  ·   Рейтинг и ограничения

Jek@

Легенда

Пост 30-Апр-2015 14:55 (спустя 3 часа)

[Q] 

Спасибо!!! .
[Профиль]  [ЛС] 

infiniti-r

Корсар

Пост 30-Апр-2015 15:12 (спустя 16 минут)

[Q] 

Спасибо! Порадую детей)
[Профиль]  [ЛС] 

сергей6666

Матрос

Пост 30-Апр-2015 17:37 (спустя 2 часа 24 минуты)

[Q] 

хрень
не смотреть
[Профиль]  [ЛС] 

salavat1234

Гроза морей

Пост 30-Апр-2015 18:23 (спустя 46 минут)

[Q] 

На любителя
[Профиль]  [ЛС] 

Shamer

Штурман

Пост 01-Май-2015 10:08 (спустя 15 часов)

[Q] 

О каких нафиг вы любителей говорите??? У детишек совсем другое мировосприятие))) кинокритики блин
[Профиль]  [ЛС] 

НатаLка

Лоцман

Пост 01-Май-2015 12:28 (спустя 2 часа 19 минут)

[Q] 

Великовозрастным дядькам мультик не понравился?? ))) Бедолажечки.. Не дошло, что это для детишек?
[Профиль]  [ЛС] 

Aleks44

Гроза морей

Пост 01-Май-2015 15:24 (спустя 2 часа 55 минут)

[Q] 

Ребенку понравилось еще есть сериал про Барашка Шона, главное в мультике чтоб он нравился детям, был со смыслом, и учил детей хорошим поступками и взаимовыручке
[Профиль]  [ЛС] 

bolin

Флибустьер

Пост 01-Май-2015 19:50 (спустя 4 часа)

[Q] 

Забираю мальчикам! СПАСИБО!!!
[Профиль]  [ЛС] 

polozm

Легенда

Пост 01-Май-2015 22:10 (спустя 2 часа 20 минут)

[Q] 

забираю девочке ag aa спасибо

_________________
mac mini -2.0 GHz Intel Core i7/ 8 GB DDR3. /Intel HD 3000(512mb)OS X 10.9 Mavericks
[Профиль]  [ЛС] 

Garmin2008

3675

Пост 02-Май-2015 00:16 (спустя 2 часа 5 минут)

[Q] 

Забираю себе! Спасибо! bk
[Профиль]  [ЛС] 

kudrjavy

Флибустьер

Пост 02-Май-2015 00:56 (спустя 39 минут)

[Q] 

Ура!!!Наконец-то!!!!))) Лови бочку

_________________
Девушки-как печеньки: ломаются,пока не намокнут...
[Профиль]  [ЛС] 

kudrjavy

Флибустьер

Пост 18-Май-2015 11:43 (спустя 16 дней)

[Q] 

СУПЕР!!!!!УРА!!!!НАКОНЕЦ!!!! Лови бочку Автору респект!!!

_________________
Девушки-как печеньки: ломаются,пока не намокнут...
[Профиль]  [ЛС] 

Пост 06-Июн-2015 09:37 (спустя 18 дней)

Топик был перенесен из форума Новинки (HD|DVD|BD| TV|SAT|PDTV| - Rips) в форум Зарубежные полнометражные мультфильмы
aleksey99
 

rebel23

Юнга

Пост 08-Май-2016 22:01 (спустя 11 месяцев 21 день)

[Q] 

Спасибо! Автору респект!!!
[Профиль]  [ЛС] 
Показать сообщения:    
Ответить на тему

Текущее время: Сегодня 08:11

Часовой пояс: GMT + 4



Вы не можете начинать темы
Вы не можете отвечать на сообщения
Вы не можете редактировать свои сообщения
Вы не можете удалять свои сообщения
Вы не можете голосовать в опросах
Вы не можете прикреплять файлы к сообщениям
Вы не можете скачивать файлы

▼ Вниз