ML
     
  Уважаемый Гость!
Вы можете поддержать проект и зарегистрироваться у наших партнеров - онлайн-стратегия MyLands. При регистрации в игре Вы получите код, который сможете активировать после регистрации на pirat.ca и получить 1000 дублонов.

Ваш код:
c3360d664ceb84802c84b88ed062a5d134e2ba97
 
     

Конгресс / The Congress (Ари Фольман / Ari Folman) [2013 г., фантастика, мультфильм, драма, HDRip] Dub (iTunes) + Original (Eng)

Ответить на тему
 
Автор
Сообщение

Пост 07-Май-2015 21:09

[Q] 

LPPI

-Конгресс / The Congress- Производство: Израиль, Германия, Польша, Люксембург, Бельгия, Франция
Год выпуска: 2013 г.
Жанр: фантастика, мультфильм, драма
Продолжительность: 01:57:38
Мировая премьера: 16 мая 2013
Российская премьера: 13 марта 2014, «Русский Репортаж»-Перевод: Профессиональный (полное дублирование) [iTunes]
Оригинальный аудиопоток: английский-Режиссер: Ари Фольман / Ari Folman
В ролях: Робин Райт, Харви Кейтель, Джон Хэмм, Пол Джаматти, Коди Смит-МакФи, Дэнни Хьюстон, Сами Гэйл, Майкл Сталь-Дэвид, Майкл Лэндис, Сара Шахи-Описание: Стареющая безработная актриса соглашается на последнюю работу, не представляя себе последствий, которые повлечет за собой это решение…- -Качество видео: HDRip
Контейнер: AVI
Видео кодек: XviD
Аудио кодек: AC3
Видео: 720x384 (1.88:1), 25 fps, XviD MPEG-4 ~1817 kbps avg, 0.26 bit/pixel
Аудио: Russian: 48 kHz, AC3 Dolby Digital, 3/2 (L,C,R,l,r) + LFE ch, ~384 kbps
Аудио #2: English: 48 kHz, AC3 Dolby Digital, 3/2 (L,C,R,l,r) + LFE ch, ~448 kbps
Cубтитры: отсутствуют-
General
Complete name : F:\The.Congress.2013.D.HDRip.avi
Format : AVI
Format/Info : Audio Video Interleave
Format profile : OpenDML
File size : 2.18 GiB
Duration : 1h 57mn
Overall bit rate : 2 656 Kbps
Writing application : VirtualDubMod 1.5.10.3 | www.virtualdub-fr.org || (build 2550/release)
Video
ID : 0
Format : MPEG-4 Visual
Format profile : Advanced [email protected]
Format settings, BVOP : 2
Format settings, QPel : No
Format settings, GMC : No warppoints
Format settings, Matrix : Default (MPEG)
Muxing mode : Packed bitstream
Codec ID : XVID
Codec ID/Hint : XviD
Duration : 1h 57mn
Bit rate : 1 806 Kbps
Width : 720 pixels
Height : 384 pixels
Display aspect ratio : 1.85:1
Frame rate : 25.000 fps
Color space : YUV
Chroma subsampling : 4:2:0
Bit depth : 8 bits
Scan type : Progressive
Compression mode : Lossy
Bits/(Pixel*Frame) : 0.261
Stream size : 1.48 GiB (68%)
Writing library : XviD 73
Audio #1
ID : 1
Format : AC-3
Format/Info : Audio Coding 3
Mode extension : CM (complete main)
Format settings, Endianness : Big
Codec ID : 2000
Duration : 1h 57mn
Bit rate mode : Constant
Bit rate : 384 Kbps
Channel(s) : 6 channels
Channel positions : Front: L C R, Side: L R, LFE
Sampling rate : 48.0 KHz
Compression mode : Lossy
Stream size : 323 MiB (14%)
Alignment : Split accross interleaves
Interleave, duration : 40 ms (1.00 video frame)
Interleave, preload duratio : 500 ms
Audio #2
ID : 2
Format : AC-3
Format/Info : Audio Coding 3
Mode extension : CM (complete main)
Format settings, Endianness : Big
Codec ID : 2000
Duration : 1h 57mn
Bit rate mode : Constant
Bit rate : 448 Kbps
Channel(s) : 6 channels
Channel positions : Front: L C R, Side: L R, LFE
Sampling rate : 48.0 KHz
Compression mode : Lossy
Stream size : 377 MiB (17%)
Alignment : Split accross interleaves
Interleave, duration : 40 ms (1.00 video frame)
Interleave, preload duratio : 500 ms
-Скриншоты:-- -
Download / Скачать

Хотите скачать бесплатно? Зарегистрируйтесь на сайте (ссылка на регистрацию). Pirat.ca - самый быстрый торрент трекер в рунете!

Как скачивать  ·   Что такое торрент  ·   Рейтинг и ограничения

gnezd77

Флибустьер

Пост 07-Май-2015 23:24 (спустя 2 часа 14 минут)

[Q] 

Кто смотрел ? Стоит качать ????
[Профиль]  [ЛС] 

umfal

Шкипер

Пост 08-Май-2015 02:33 (спустя 3 часа)

[Q] 

Выкачиваю, лента по книжке Станислава Лема. По отзывам вроде неплохая анимация, хотя по скринам раздачи этого вроде и не скажешь... В общем заинтересовало. Спасибо!
Сюжет из вики под спойлером:
Фильм состоит из двух частей. В первой части события происходят в современном мире. Актриса Робин Райт заключает контракт с киностудией Miramount (контаминация из названий Miramax и Paramount) на использование своего изображения. После электронного сканирования образ актрисы сохраняется в таком виде, что позволяет использовать актрису в любом фильме без её участия и разрешения.
Во второй части, происходящей в будущем через 20 лет в анимированном мире, актриса приезжает в огромный отель, в котором открывается конгресс. Далее, так же как и в книге Лема, персонажи балансируют на грани между реальностью и галлюцинациями, пытаясь сохранить собственную индивидуальность. Протагонистка пытается найти своего сына, страдающего от синдрома Ашера (сопровождается потерей слуха и зрения), сначала в анимированном, потом в реальном мире и окончательно возвращаясь в вымышленный.
[Профиль]  [ЛС] 

fort13

Лоцман

Пост 08-Май-2015 10:29 (спустя 7 часов)

[Q] 

Фильм интересный и необычный. Снят хорошо
Одобрямс!
[Профиль]  [ЛС] 

Kosmatos

Корсар

Пост 08-Май-2015 21:00 (спустя 10 часов)

[Q] 

Смотрел в 2013. Рекомендую, яркий и броский образчик левой антиутопичной резьбы и нестандартного фильма. И актриса в главной роли...всегда нравилась. эффектная женщина. стиль анимации и вообще. хороший фильм
[Профиль]  [ЛС] 
Показать сообщения:    
Ответить на тему

Текущее время: Сегодня 10:04

Часовой пояс: GMT + 4



Вы не можете начинать темы
Вы не можете отвечать на сообщения
Вы не можете редактировать свои сообщения
Вы не можете удалять свои сообщения
Вы не можете голосовать в опросах
Вы не можете прикреплять файлы к сообщениям
Вы не можете скачивать файлы

▼ Вниз